<?xml version="1.0" encoding="UTF-8" standalone="no"?>
<!DOCTYPE svg PUBLIC "-//W3C//DTD SVG 1.1//EN" "http://www.w3.org/Graphics/SVG/1.1/DTD/svg11.dtd">
<svg xmlns="http://www.w3.org/2000/svg" xmlns:xlink="http://www.w3.org/1999/xlink" version="1.1">
<metadata>
Created by FontForge 20170910 at Fri Feb 12 03:13:32 2016
 By Jimmy Wärting
Copyright (c) 2015 by www.fontiran.com (Moslem Ebrahimi). All rights reserved.
</metadata>
<defs>
<font id="IRANSansWebFaNum-Medium" horiz-adv-x="0">
  <font-face font-family="IRANSansWeb(FaNum) Medium" font-weight="500" font-stretch="normal" units-per-em="2300" panose-1="2 4 5 3 5 2 1 2 2 3" ascent="1840" descent="-460" x-height="1189" cap-height="1641" bbox="-1225 -1165 5051 2389" underline-thickness="120" underline-position="-710" unicode-range="U+0020-FEFC"/>
<missing-glyph horiz-adv-x="1229" d="M102 -362v1806h1024v-1806h-1024zM217 -248h795v1577h-795v-1577z"/>
    <glyph glyph-name="uniFEFB" unicode="ﻟﺎ" horiz-adv-x="1247" arabic-form="isolated" d="M1192 597q6 -75 -5.5 -147.5t-37 -138t-62 -121.5t-79.5 -97q-72 -69 -163.5 -112t-193 -64t-208.5 -22.5t-210 13.5l44 255q52 -6 91.5 -10.5t73.5 -5.5t66.5 1t70.5 8q-7 86 -32.5 176t-62.5 178t-82.5 172t-92 159t-90.5 138t-78 108.5t-55.5 72t-22.5 27.5l188 192 q83 -109 153 -220.5t127 -219.5t102 -209.5t78 -189.5t55.5 -160t34.5 -121q36 16 72.5 49.5t64.5 81t41.5 107t1.5 127.5l-153 870l248 60q0 -1 6.5 -42t16.5 -111t22.5 -163t25.5 -199t24.5 -219t20.5 -223z"/>
    <glyph glyph-name="uniFEFC" unicode="ﻠﺎ" horiz-adv-x="1461" arabic-form="final" d="M1341 258q32 -17 63 -23.5t59 -8.5h-2h9q26 0 49.5 -10t41 -27.5t28 -40.5t10.5 -50t-10.5 -50.5t-28 -40.5t-41 -27t-49.5 -10h-9q-26 0 -67 3t-88 17.5t-95 44.5t-89 83q-71 -71 -166.5 -119.5t-202 -74t-217 -28.5t-210.5 17l73 243q37 -5 75.5 -8t77 -2.5t77 6 t76.5 18.5q-29 112 -71 219.5t-90.5 206.5t-100.5 188t-102.5 165t-95.5 137.5t-80 105.5l180 186q38 -61 104 -159t149 -248q53 -95 99 -190.5t84 -186.5t67 -176t47 -158q27 18 54 40.5t48.5 49t34 55.5t10.5 61q-11 157 -26.5 302t-32.5 275.5t-34 245t-32 211.5l254 48 q0 -2 6 -56t15.5 -143.5t20.5 -205.5t22.5 -242t21.5 -253t17 -239q4 -53 17 -90.5t51 -60.5h-1z"/>
    <glyph glyph-name="uniFEF7" unicode="ﻟﺄ" horiz-adv-x="1247" arabic-form="isolated" d="M1192 597q6 -75 -5.5 -147.5t-37 -138t-62 -121.5t-79.5 -97q-72 -69 -163.5 -112t-193 -64t-208.5 -22.5t-210 13.5l44 255q52 -6 91.5 -10.5t73.5 -5.5t66.5 1t70.5 8q-7 86 -32.5 176t-62.5 178t-82.5 172t-92 159t-90.5 138t-78 108.5t-55.5 72t-22.5 27.5l188 192 q83 -109 153 -220.5t127 -219.5t102 -209.5t78 -189.5t55.5 -160t34.5 -121q36 16 72.5 49.5t64.5 81t41.5 107t1.5 127.5l-153 870l248 60q0 -1 6.5 -42t16.5 -111t22.5 -163t25.5 -199t24.5 -219t20.5 -223zM295 1818q-16 1 -33 3q-15 2 -33 3t-36 1q-29 0 -57 -9h1 q-14 -6 -29 -16.5t-27.5 -23t-20.5 -27t-8 -28.5q0 -12 6 -30v1q6 -15 21 -27.5t34.5 -21.5t41 -14t40.5 -5q8 0 16.5 1t16.5 4q27 9 53.5 22.5t48.5 27.5q26 16 49 33l77 -102q-48 -37 -109.5 -71.5t-146.5 -80.5l-240 -133l-62 113l167 93q-34 20 -61 50t-42 65 q-15 36 -15 80q0 33 11 64t30 58.5t45 49t56 35.5q25 11 51 15.5t53 4.5q23 0 47.5 -3.5t44.5 -8.5q24 -5 46 -12z"/>
    <glyph glyph-name="uniFEF8" unicode="ﻠﺄ" horiz-adv-x="1470" arabic-form="final" d="M1341 258q32 -17 63 -23.5t59 -8.5h-2h9q26 0 49.5 -10t41 -27.5t28 -40.5t10.5 -50t-10.5 -50.5t-28 -40.5t-41 -27t-49.5 -10h-9q-26 0 -67 3t-88 17.5t-95 44.5t-89 83q-71 -71 -166.5 -119.5t-202 -74t-217 -28.5t-210.5 17l73 243q37 -5 75.5 -8t77 -2.5t77 6 t76.5 18.5q-29 112 -71 219.5t-90.5 206.5t-100.5 188t-102.5 165t-95.5 137.5t-80 105.5l180 186q38 -61 104 -159t149 -248q53 -95 99 -190.5t84 -186.5t67 -176t47 -158q27 18 54 40.5t48.5 49t34 55.5t10.5 61q-11 157 -26.5 302t-32.5 275.5t-34 245t-32 211.5l254 48 q0 -2 6 -56t15.5 -143.5t20.5 -205.5t22.5 -242t21.5 -253t17 -239q4 -53 17 -90.5t51 -60.5h-1zM393 1849q-16 1 -33 3q-15 2 -33 3t-36 1q-29 0 -57 -9h1q-14 -6 -29 -16.5t-27.5 -23t-20.5 -27t-8 -28.5q0 -12 6 -30v1q6 -15 21 -27.5t34.5 -21.5t41 -14t40.5 -5 q8 0 16.5 1t16.5 4q27 9 53.5 22.5t48.5 27.5q26 16 49 33l77 -102q-48 -37 -109.5 -71.5t-146.5 -80.5l-240 -133l-62 113l167 93q-34 20 -61 50t-42 65q-15 36 -15 80q0 33 11 64t30 58.5t45 49t56 35.5q25 11 51 15.5t53 4.5q23 0 47.5 -3.5t44.5 -8.5q24 -5 46 -12z"/>
    <glyph glyph-name="uniFEF9" unicode="ﻟﺈ" horiz-adv-x="1247" arabic-form="isolated" d="M1192 597q6 -75 -5.5 -147.5t-37 -138t-62 -121.5t-79.5 -97q-72 -69 -163.5 -112t-193 -64t-208.5 -22.5t-210 13.5l44 255q52 -6 91.5 -10.5t73.5 -5.5t66.5 1t70.5 8q-7 86 -32.5 176t-62.5 178t-82.5 172t-92 159t-90.5 138t-78 108.5t-55.5 72t-22.5 27.5l188 192 q83 -109 153 -220.5t127 -219.5t102 -209.5t78 -189.5t55.5 -160t34.5 -121q36 16 72.5 49.5t64.5 81t41.5 107t1.5 127.5l-153 870l248 60q0 -1 6.5 -42t16.5 -111t22.5 -163t25.5 -199t24.5 -219t20.5 -223zM796 -293q-16 1 -33 3q-15 2 -33 3t-36 1q-29 0 -57 -9h1 q-14 -6 -29 -16.5t-27.5 -23t-20.5 -27t-8 -28.5q0 -12 6 -30v1q6 -15 21 -27.5t34.5 -21.5t41 -14t40.5 -5q8 0 16.5 1t16.5 4q27 9 53.5 22.5t48.5 27.5q26 16 49 33l77 -102q-48 -37 -109.5 -71.5t-146.5 -80.5l-240 -133l-62 113l167 93q-34 20 -61 50t-42 65 q-15 36 -15 80q0 33 11 64t30 58.5t45 49t56 35.5q25 11 51 15.5t53 4.5q23 0 47.5 -3.5t44.5 -8.5q24 -5 46 -12z"/>
    <glyph glyph-name="uniFEFA" unicode="ﻠﺈ" horiz-adv-x="1470" arabic-form="final" d="M1341 258q32 -17 63 -23.5t59 -8.5h-2h9q26 0 49.5 -10t41 -27.5t28 -40.5t10.5 -50t-10.5 -50.5t-28 -40.5t-41 -27t-49.5 -10h-9q-26 0 -67 3t-88 17.5t-95 44.5t-89 83q-71 -71 -166.5 -119.5t-202 -74t-217 -28.5t-210.5 17l73 243q37 -5 75.5 -8t77 -2.5t77 6 t76.5 18.5q-29 112 -71 219.5t-90.5 206.5t-100.5 188t-102.5 165t-95.5 137.5t-80 105.5l180 186q38 -61 104 -159t149 -248q53 -95 99 -190.5t84 -186.5t67 -176t47 -158q27 18 54 40.5t48.5 49t34 55.5t10.5 61q-11 157 -26.5 302t-32.5 275.5t-34 245t-32 211.5l254 48 q0 -2 6 -56t15.5 -143.5t20.5 -205.5t22.5 -242t21.5 -253t17 -239q4 -53 17 -90.5t51 -60.5h-1zM948 -251q-16 1 -33 3q-15 2 -33 3t-36 1q-29 0 -57 -9h1q-14 -6 -29 -16.5t-27.5 -23t-20.5 -27t-8 -28.5q0 -12 6 -30v1q6 -15 21 -27.5t34.5 -21.5t41 -14t40.5 -5 q8 0 16.5 1t16.5 4q27 9 53.5 22.5t48.5 27.5q26 16 49 33l77 -102q-48 -37 -109.5 -71.5t-146.5 -80.5l-240 -133l-62 113l167 93q-34 20 -61 50t-42 65q-15 36 -15 80q0 33 11 64t30 58.5t45 49t56 35.5q25 11 51 15.5t53 4.5q23 0 47.5 -3.5t44.5 -8.5q24 -5 46 -12z"/>
    <glyph glyph-name="uniFEF5" unicode="ﻟﺂ" horiz-adv-x="1350" arabic-form="isolated" d="M1294 597q6 -75 -5.5 -147.5t-37 -138t-62 -121.5t-79.5 -97q-72 -69 -163.5 -112t-193 -64t-208.5 -22.5t-210 13.5l44 255q52 -6 91.5 -10.5t73.5 -5.5t66.5 1t70.5 8q-7 86 -32.5 176t-62.5 178t-82.5 172t-92 159t-90.5 138t-78 108.5t-55.5 72t-22.5 27.5l188 192 q83 -109 153 -220.5t127 -219.5t102 -209.5t78 -189.5t55.5 -160t34.5 -121q36 16 72.5 49.5t64.5 81t41.5 107t1.5 127.5l-153 870l248 60q0 -1 6.5 -42t16.5 -111t22.5 -163t25.5 -199t24.5 -219t20.5 -223zM-18 1442q0 15 3 21q2 6 6.5 18.5t10.5 26.5t13 29.5t14 27.5 q34 53 79.5 85.5t91.5 42.5q10 2 23.5 2.5t22.5 0.5q46 0 83 -11t69 -25h-1q26 -11 51.5 -24t54.5 -14q21 -1 43 13t41.5 33.5t34 38t20.5 26.5l135 -87q-1 -3 -11 -17.5t-27.5 -35t-42.5 -44t-55.5 -43t-66.5 -32t-76 -11.5q-43 1 -79 11.5t-67 21.5l-16 6h1 q-15 6 -28.5 13t-27 13t-27 9t-27.5 1q-27 -2 -42.5 -20.5t-24.5 -42t-13.5 -46.5t-8.5 -35z"/>
    <glyph glyph-name="uniFEF6" unicode="ﻠﺂ" horiz-adv-x="1470" arabic-form="final" d="M1341 258q32 -17 63 -23.5t59 -8.5h-2h9q26 0 49.5 -10t41 -27.5t28 -40.5t10.5 -50t-10.5 -50.5t-28 -40.5t-41 -27t-49.5 -10h-9q-26 0 -67 3t-88 17.5t-95 44.5t-89 83q-71 -71 -166.5 -119.5t-202 -74t-217 -28.5t-210.5 17l73 243q37 -5 75.5 -8t77 -2.5t77 6 t76.5 18.5q-29 112 -71 219.5t-90.5 206.5t-100.5 188t-102.5 165t-95.5 137.5t-80 105.5l180 186q38 -61 104 -159t149 -248q53 -95 99 -190.5t84 -186.5t67 -176t47 -158q27 18 54 40.5t48.5 49t34 55.5t10.5 61q-11 157 -26.5 302t-32.5 275.5t-34 245t-32 211.5l254 48 q0 -2 6 -56t15.5 -143.5t20.5 -205.5t22.5 -242t21.5 -253t17 -239q4 -53 17 -90.5t51 -60.5h-1zM-3 1453q0 15 3 21q2 6 6.5 18.5t10.5 26.5t13 29.5t14 27.5q34 53 79.5 85.5t91.5 42.5q10 2 23.5 2.5t22.5 0.5q46 0 83 -11t69 -25h-1q26 -11 51.5 -24t54.5 -14 q21 -1 43 13t41.5 33.5t34 38t20.5 26.5l135 -87q-1 -3 -11 -17.5t-27.5 -35t-42.5 -44t-55.5 -43t-66.5 -32t-76 -11.5q-43 1 -79 11.5t-67 21.5l-16 6h1q-15 6 -28.5 13t-27 13t-27 9t-27.5 1q-27 -2 -42.5 -20.5t-24.5 -42t-13.5 -46.5t-8.5 -35z"/>
    <glyph glyph-name="uni06440671.isol" unicode="ﻟﭑ" horiz-adv-x="1247" d="M1192 597q6 -75 -5.5 -147.5t-37 -138t-62 -121.5t-79.5 -97q-72 -69 -163.5 -112t-193 -64t-208.5 -22.5t-210 13.5l44 255q52 -6 91.5 -10.5t73.5 -5.5t66.5 1t70.5 8q-7 86 -32.5 176t-62.5 178t-82.5 172t-92 159t-90.5 138t-78 108.5t-55.5 72t-22.5 27.5l188 192 q83 -109 153 -220.5t127 -219.5t102 -209.5t78 -189.5t55.5 -160t34.5 -121q36 16 72.5 49.5t64.5 81t41.5 107t1.5 127.5l-153 870l248 60q0 -1 6.5 -42t16.5 -111t22.5 -163t25.5 -199t24.5 -219t20.5 -223zM603 1568q19 16 20 39q1 14 -9 25q-20 21 -59 21q-12 0 -25 -2 v0q-50 -10 -92 -45l-6 -6q-42 -41 -63 -73q20 -1 40 -1q39 0 78 5q82 10 116 37zM713 1654q7 -22 7 -45q-2 -52 -23 -86q-24 -39 -69 -65q-78 -45 -208 -47h-11q-37 0 -84 4q-25 2 -45 9q-28 10 -46 26q-10 9 -20 21q-7 8 -15 19q-4 5 -16 5q-8 0 -18 -2q-20 -6 -43 -22 q-17 -11 -39 -31l-9 -8l-36 108q-3 8 29 23q8 3 18 8q4 1 7 3q3 1 4 1q17 7 31 12q18 6 33 10q13 3 25 3q22 0 46 -10q16 -7 39 -22q102 176 238 195q20 5 41 5q52 0 95 -28q43 -27 64 -73l2 -5q3 -7 3 -8z"/>
    <glyph glyph-name="uni06440671.fina" unicode="ﻠﭑ" horiz-adv-x="1470" d="M1341 258q32 -17 63 -23.5t59 -8.5h-2h9q26 0 49.5 -10t41 -27.5t28 -40.5t10.5 -50t-10.5 -50.5t-28 -40.5t-41 -27t-49.5 -10h-9q-26 0 -67 3t-88 17.5t-95 44.5t-89 83q-71 -71 -166.5 -119.5t-202 -74t-217 -28.5t-210.5 17l73 243q37 -5 75.5 -8t77 -2.5t77 6 t76.5 18.5q-29 112 -71 219.5t-90.5 206.5t-100.5 188t-102.5 165t-95.5 137.5t-80 105.5l180 186q38 -61 104 -159t149 -248q53 -95 99 -190.5t84 -186.5t67 -176t47 -158q27 18 54 40.5t48.5 49t34 55.5t10.5 61q-11 157 -26.5 302t-32.5 275.5t-34 245t-32 211.5l254 48 q0 -2 6 -56t15.5 -143.5t20.5 -205.5t22.5 -242t21.5 -253t17 -239q4 -53 17 -90.5t51 -60.5h-1zM713 1558q19 16 20 39q1 14 -9 25q-20 21 -59 21q-12 0 -25 -2v0q-50 -10 -92 -45l-6 -6q-42 -41 -63 -73q20 -1 40 -1q39 0 78 5q82 10 116 37zM823 1644q7 -22 7 -45 q-2 -52 -23 -86q-24 -39 -69 -65q-78 -45 -208 -47h-11q-37 0 -84 4q-25 2 -45 9q-28 10 -46 26q-10 9 -20 21q-7 8 -15 19q-4 5 -16 5q-8 0 -18 -2q-20 -6 -43 -22q-17 -11 -39 -31l-9 -8l-36 108q-3 8 29 23q8 3 18 8q4 1 7 3q3 1 4 1q17 7 31 12q18 6 33 10q13 3 25 3 q22 0 46 -10q16 -7 39 -22q102 176 238 195q20 5 41 5q52 0 95 -28q43 -27 64 -73l2 -5q3 -7 3 -8z"/>
    <glyph glyph-name="uniFDF2" unicode="ﻟﻠّﻪ" horiz-adv-x="2188" arabic-form="isolated" d="M1152 -41q-26 1 -48 3q-20 2 -38.5 3t-26.5 2q-1 0 -17.5 3.5t-38 9t-42 12t-30.5 13.5q-39 20 -73 49.5t-60 71.5q-58 -6 -108 -7.5t-98 0.5q-133 5 -227.5 44t-148.5 106q-31 42 -44 89t-11 87q2 33 9 61.5t16 48.5l1 2q45 83 105 143t125 103.5t130.5 73.5t119.5 54 q-2 36 -3 65t-3 49q-1 17 -1 38v29l254 11q16 -331 34.5 -531t38.5 -267q5 -28 21 -46.5t37.5 -30t45.5 -17.5t44.5 -8t35.5 -2h19q35 2 59.5 22t37.5 49q-1 -1 -1 43q0 43 -3 121t-8.5 187.5t-14 248.5t-18.5 304l258 27l38 -532q13 -177 19.5 -272t6.5 -97q0 -14 4.5 -37 t25.5 -47h-1q18 -19 47 -21q55 -2 91.5 4.5t48.5 24.5q16 20 20 44.5t4 49.5q0 4 -19.5 235.5t-57.5 689.5l253 57q73 -969 72 -1048q-1 -45 -20 -95.5t-53 -101.5q-38 -53 -110 -80.5t-175 -25.5q-8 -2 -17 -2h-17q-17 0 -36 2.5t-39 8.5q-13 1 -24 3.5t-22 7.5h1 q-29 12 -54 25t-45 29q-4 -4 -9 -7.5t-14 -9.5q-61 -39 -126 -54t-120 -15zM1250 1389q-60 0 -100 46q-20 28 -29.5 68t-7.5 95v-1q0 18 3 36t6 33t5.5 24.5t3.5 10.5l103 -22l-4 -30q-2 -13 -3 -28t-2 -29q-2 -32 2 -54.5t12 -33.5l-1 2q2 -2 4.5 -3.5t7.5 -1.5 q10 0 19.5 7t18 18.5t14.5 25t11 26.5q6 18 10 38.5t7 38.5q4 20 6 41l112 -5q0 -20 2 -40q2 -17 5 -37t9 -38q3 -12 7.5 -25t10 -23.5t13 -17t16.5 -6.5q10 0 16 3q5 7 10.5 24t5.5 52q0 21 -7 46t-16.5 48.5t-19.5 43.5t-17 31l95 54q1 -2 13 -23.5t26.5 -53.5t26 -71 t11.5 -75q0 -54 -12 -91.5t-38 -63.5q-14 -14 -28 -21t-27 -10.5t-23 -4t-16 -0.5q-32 0 -60 15t-51 42q-3 4 -5 5.5t-3.5 2.5t-3 3.5t-4.5 9.5q-31 -49 -67 -65t-67 -16zM697 377q-8 51 -15.5 121t-15.5 164q-23 -10 -56 -23.5t-68.5 -29.5t-70 -34.5t-61 -39t-41 -42.5 t-10.5 -45l1 3q-1 -3 1.5 -11t11.5 -17.5t25.5 -19t45.5 -14.5h-1q12 -2 31 -4t40 -3.5t41 -3t34 -2.5zM1312 1816q11 41 16.5 79.5t5.5 73.5q0 37 -5.5 75.5t-16.5 78.5l102 31q10 -38 16 -81t6 -90q0 -42 -5 -91.5t-17 -106.5z"/>
    <glyph glyph-name="uniFDFC" unicode="رﻳﺎل" horiz-adv-x="3311" arabic-form="isolated" d="M3194 714q34 -96 60 -193q11 -41 22 -86.5t19.5 -91.5t13.5 -90.5t5 -83.5q0 -90 -27.5 -175.5t-76 -165t-115 -151.5t-144.5 -136t-165 -119t-176 -99l-114 229q71 35 140 77.5t131.5 90.5t116 101.5t92 110t60.5 116t22 121.5q0 57 -13 120t-31 125t-38 118.5 t-33 100.5zM2023 -396l-170 -170l-172 171l170 171zM2401 -397l-170 -171l-172 172l170 170zM2082 -30q-116 0 -199 28.5t-143 86.5q-36 36 -55.5 77.5t-28.5 81t-10.5 75t-1.5 61.5q1 32 2.5 106t1.5 179q0 94 -1 200t-4.5 209.5t-11.5 197t-22 163.5l251 75 q11 -58 19 -134t13 -161.5t8 -175.5t3 -177q0 -26 0.5 -55t1 -57.5t0.5 -55.5v-49q0 -38 -0.5 -71.5t-1 -64.5t-1 -61t-0.5 -61q-1 -38 2 -71.5t20 -49.5q36 -38 149 -39h9q26 0 49.5 -10.5t41 -28t28 -41t10.5 -49.5q0 -27 -10.5 -50.5t-28 -40.5t-41 -27t-49.5 -10z M1856 98q0 27 10 50.5t27.5 40.5t40.5 27t50 10h103h45q42 0 83 3.5t77 14.5t63.5 31t42.5 52q11 22 11 66q0 26 -10.5 73t-29 104t-43 118t-51.5 114l231 114q25 -57 50 -121t44.5 -131.5t31.5 -135.5t12 -133q0 -97 -33 -173q-38 -88 -107 -144.5t-164 -84.5 q-57 -16 -110.5 -19.5t-99.5 -3.5h-137h-9q-27 0 -50 10t-40.5 27t-27.5 40.5t-10 50.5zM352 316q-28 -41 -51 -99q-20 -50 -36 -124.5t-16 -175.5q0 -61 18 -110t48 -86.5t68.5 -65t79.5 -45.5t80.5 -27.5t71.5 -11.5q8 -1 14.5 -1h13.5q69 0 146 23.5t142 74t107.5 130 t42.5 192.5q0 79 -3 186t-7.5 227.5t-10.5 248.5t-12 250q-14 285 -32 596l261 49q13 -325 24 -622q4 -127 8.5 -260t8.5 -257.5t6 -233.5t2 -188q0 -126 -30.5 -225t-82.5 -173.5t-120.5 -126.5t-143.5 -85t-152.5 -47.5t-147.5 -14.5h-19t-19 1q-63 5 -132 22.5t-135 49.5 t-125.5 79.5t-104 113t-71 149.5t-25.5 189q1 133 19.5 227t40.5 154q26 70 58 117z"/>
    <glyph glyph-name="tooman" unicode="ﺗﻮﻣﺎن" horiz-adv-x="5160" d="M3422 -480q147 29 265.5 77.5t205.5 108.5t141.5 128t72.5 136h-52t-54 1t-52 1.5t-44 2.5q-111 8 -200 47t-143 106q-38 48 -54.5 107t-16.5 124q0 51 9.5 103t27 101.5t40.5 93.5t50 80q54 69 120 104.5t138 35.5q155 0 283 -138q42 -47 76 -105t59 -124t40.5 -137.5 t19.5 -146.5h47q27 0 50.5 -10t41 -27t28 -41t10.5 -51q0 -26 -10.5 -49t-28 -40.5t-41 -27.5t-50.5 -10h-67q-34 -147 -114.5 -266t-193.5 -207.5t-252.5 -145.5t-291.5 -81zM3876 620q-26 0 -56 -22t-55 -56.5t-41.5 -76.5t-16.5 -82q0 -42 19.5 -69.5t50 -44.5t69 -25.5 t76.5 -12.5q21 -1 46 -2t51.5 -1h52.5t49 2q-5 56 -21 106t-37.5 93t-47 77.5t-47.5 59.5v-1q-17 18 -41.5 36.5t-50.5 18.5zM4156 98q0 27 10 50.5t27.5 40.5t40.5 27t50 10h111h48q49 0 104 3.5t105.5 14t91.5 29t61 47.5q15 22 15.5 59t-10 81t-28 92.5t-37.5 94 t-39.5 86t-32.5 68.5l233 115q27 -48 53.5 -115.5t46.5 -139.5t32.5 -142t12.5 -124q0 -97 -33 -173q-38 -88 -107 -144.5t-164 -84.5q-29 -8 -72.5 -12.5t-88.5 -7t-85.5 -3t-62.5 -0.5h-145h-9q-27 0 -50 10t-40.5 27t-27.5 40.5t-10 50.5zM4595 1246l-170 -170l-172 171 l170 171zM4973 1245l-170 -171l-172 172l170 170zM2078 98q0 27 10 49.5t27 40t40 27.5t50 11q73 0 127 27.5t95.5 71.5t73 99t59.5 110q26 53 54.5 105t61.5 94q49 57 110.5 89t130.5 32q82 0 151 -34t123 -98q42 -51 68.5 -116.5t34.5 -140.5v2q6 -39 6 -84 q0 -51 -8.5 -99.5t-25.5 -92.5q-30 -76 -86 -128t-122 -72q-22 -6 -44 -8.5t-45 -2.5q-42 0 -89 10.5t-94 28.5q-21 9 -47 21.5t-53 27.5t-53.5 31.5t-49.5 32.5q-39 -38 -81 -68.5t-88.5 -51.5t-98 -31.5t-110.5 -10.5q-27 0 -50 10t-40 27.5t-27 40.5t-10 50zM2733 343 q33 -24 74.5 -44.5t82 -35.5t75 -23.5t55.5 -8.5q13 0 25 3q10 2 20.5 12.5t18.5 28.5t13 42t3 54q-1 13 -7.5 35t-18 48t-28.5 53t-38.5 48.5t-48 35.5t-57.5 14q-28 0 -55.5 -44t-71.5 -131zM2207 -30q-116 0 -199 28.5t-143 86.5q-36 36 -55.5 77.5t-28.5 81t-10.5 75 t-1.5 61.5q1 32 2.5 106t1.5 179q0 94 -1 200t-4.5 209.5t-11.5 197t-22 163.5l251 75q11 -58 19 -134t13 -161.5t8 -175.5t3 -177q0 -26 0.5 -55t1 -57.5t0.5 -55.5v-49q0 -38 -0.5 -71.5t-1 -64.5t-1 -61t-0.5 -61q-1 -38 2 -71.5t20 -49.5q36 -38 149 -39h9 q26 0 49.5 -10.5t41 -28t28 -41t10.5 -49.5q0 -27 -10.5 -50.5t-28 -40.5t-41 -27t-49.5 -10zM836 -539q-151 7 -267.5 43t-204.5 114q-54 48 -93.5 106t-66 123t-39 135.5t-12.5 144.5q0 158 47 315t139 296l197 -143q-18 -25 -44.5 -74t-51 -113t-41.5 -138t-17 -149 q0 -89 37.5 -162t101.5 -125.5t148.5 -82t178.5 -31.5q112 -2 212.5 30.5t174.5 90.5t116 137t38 171q-2 46 -15.5 102.5t-32.5 114.5t-40.5 113.5t-40.5 98.5t-32 69t-14 26l235 131q3 -4 16 -33t31 -76t39 -108t39.5 -128t32 -136.5t16.5 -134.5q5 -91 -13 -182.5 t-59 -174t-105.5 -153.5t-153 -121.5t-202.5 -76.5t-254 -19zM1080 791l-191 -191l-192 192l191 191z"/>
    <glyph glyph-name="yeye" unicode="ﻴﻴ" horiz-adv-x="1754" d="M-135 98q0 27 10 50.5t27 40.5t40.5 27t50.5 10h76q78 0 149.5 7t127 29.5t89 64t36.5 109.5q1 27 -2 53t-9.5 55.5t-16.5 64.5t-23 81l245 69q13 -48 21 -87.5t13 -76t8.5 -74.5t7.5 -84q3 -34 9 -71.5t20.5 -68.5t40 -51t67.5 -20q27 0 50.5 -10t41 -27t27.5 -40.5 t10 -50.5t-10.5 -50.5t-28 -40.5t-40.5 -27t-49 -10q-98 0 -165.5 32t-113.5 83q-42 -32 -99.5 -54t-124.5 -35.5t-139 -19.5t-142 -6h-76q-27 0 -50.5 10t-40.5 27t-27 40.5t-10 50.5zM366 -470l-170 -170l-172 171l170 171zM744 -471l-170 -171l-172 172l170 170zM753 98 q0 27 10 50.5t27 40.5t40.5 27t50.5 10h76q78 0 149.5 7t127 29.5t89 64t36.5 109.5q1 27 -2 53t-9.5 55.5t-16.5 64.5t-23 81l245 69q13 -48 21 -87.5t13 -76t8.5 -74.5t7.5 -84q3 -34 9 -71.5t20.5 -68.5t40 -51t67.5 -20q27 0 50.5 -10t41 -27t27.5 -40.5t10 -50.5 t-10.5 -50.5t-28 -40.5t-40.5 -27t-49 -10q-98 0 -165.5 32t-113.5 83q-42 -32 -99.5 -54t-124.5 -35.5t-139 -19.5t-142 -6h-76q-27 0 -50.5 10t-40.5 27t-27 40.5t-10 50.5zM1264 -380l-170 -170l-172 171l170 171zM1642 -381l-170 -171l-172 172l170 170z"/>
    <glyph glyph-name="yeye1" unicode="ﻳﻴ" horiz-adv-x="1805" d="M-135 98q0 27 10 50.5t27 40.5t40.5 27t50.5 10h76q78 0 149.5 7t127 29.5t89 64t36.5 109.5q1 27 -2 53t-9.5 55.5t-16.5 64.5t-23 81l245 69q13 -48 21 -87.5t13 -76t8.5 -74.5t7.5 -84q3 -34 9 -71.5t20.5 -68.5t40 -51t67.5 -20q27 0 50.5 -10t41 -27t27.5 -40.5 t10 -50.5t-10.5 -50.5t-28 -40.5t-40.5 -27t-49 -10q-98 0 -165.5 32t-113.5 83q-42 -32 -99.5 -54t-124.5 -35.5t-139 -19.5t-142 -6h-76q-27 0 -50.5 10t-40.5 27t-27 40.5t-10 50.5zM336 -440l-170 -170l-172 171l170 171zM714 -441l-170 -171l-172 172l170 170z M1277 -335l-170 -170l-172 171l170 171zM1655 -336l-170 -171l-172 172l170 170zM760 98q0 27 10 50.5t27.5 40.5t40.5 27t50 10h111h48q49 0 104 3.5t105.5 14t91.5 29t61 47.5q15 22 15.5 59t-10 81t-28 92.5t-37.5 94t-39.5 86t-32.5 68.5l233 115q27 -48 53.5 -115.5 t46.5 -139.5t32.5 -142t12.5 -124q0 -97 -33 -173q-38 -88 -107 -144.5t-164 -84.5q-29 -8 -72.5 -12.5t-88.5 -7t-85.5 -3t-62.5 -0.5h-145h-9q-27 0 -50 10t-40.5 27t-27.5 40.5t-10 50.5z"/>
    <glyph glyph-name="uni0621" unicode="ء" horiz-adv-x="1019" arabic-form="isolated" d="M764 477q-22 10 -46 20q-20 8 -45.5 15.5t-51.5 12.5q-37 6 -77 0h1q-19 -5 -37 -15t-32.5 -23.5t-24.5 -30.5t-13 -35v1q-3 -17 3 -42h-1q7 -22 21.5 -41.5t34 -34.5t42 -25.5t46.5 -13.5q16 -3 27 -3q13 0 27 5q37 6 76 19.5t72 27.5q38 17 75 36l92 -173 q-35 -18 -71 -34.5t-76 -32.5t-84.5 -33t-96.5 -36l-67 -25l-368 -136l-69 185l244 93q-39 35 -67.5 80.5t-40.5 95.5v-1q-16 63 -3.5 124.5t46 113.5t85.5 90t115 53q35 8 73.5 11t78.5 -4q32 -6 67 -17.5t64 -22.5q33 -13 66 -28z"/>
    <glyph glyph-name="uni0627" unicode="ا" horiz-adv-x="536" arabic-form="isolated" d="M387 1566q50 -379 52 -709q2 -531 -15 -845l-262 -40q30 462 18 774q-16 408 -50 736z"/>
    <glyph glyph-name="uniFE8E" unicode="ا" horiz-adv-x="624" arabic-form="final" d="M626 -30q-116 0 -199 28.5t-143 86.5q-36 36 -55.5 77.5t-28.5 81t-10.5 75t-1.5 61.5q1 32 2.5 106t1.5 179q0 63 -0.5 134.5t-1.5 145.5t-3.5 148.5t-7 143.5t-11 129.5t-15.5 107.5l251 75q11 -58 19 -140t13 -174.5t8 -189t3 -183.5q0 -26 0.5 -55t1 -57.5t0.5 -55.5 v-49q0 -38 -0.5 -71.5t-1 -64.5t-1 -61t-0.5 -61q-1 -38 2 -71.5t20 -49.5q36 -38 149 -39h9q26 0 49.5 -10.5t41 -28t28 -41t10.5 -49.5q0 -27 -10.5 -50.5t-28 -40.5t-41 -27t-49.5 -10z"/>
    <glyph glyph-name="uni062D" unicode="ح" horiz-adv-x="1713" arabic-form="isolated" d="M1537 -563q-156 -112 -334 -174.5t-379 -62.5q-166 0 -310 47.5t-248.5 137.5t-160.5 220.5t-46 297.5q7 112 55 209t128 177t185.5 142t226.5 104t252 63t261 19q-87 33 -163 72t-144 72.5t-129.5 56t-118.5 22.5q-41 0 -84 -19.5t-82 -50t-72 -68t-52 -74.5l-213 137 q39 68 86 127t108 103.5t137 71t172 30.5q62 0 121.5 -13t116.5 -36.5t113 -54.5t110 -67q85 -56 154 -94t130.5 -63.5t118.5 -41.5t117 -28l-79 -294q-2 0 -23.5 -1.5t-59.5 0.5q-70 4 -154.5 -1t-175.5 -20t-183.5 -39t-179 -57t-162.5 -75t-133 -93t-91 -110.5 t-36 -127.5q-4 -110 40.5 -188.5t121 -129.5t176.5 -75t208 -24q142 0 272.5 46.5t252.5 136.5l150 -210v0z"/>
    <glyph glyph-name="uniFEA3" unicode="ح" horiz-adv-x="1548" arabic-form="initial" d="M-131 98q0 27 10 50.5t28 40.5t41.5 27t50.5 10h198q124 0 252.5 23.5t255.5 62t248 88.5t229 103q-86 19 -160 50.5t-140 61.5t-127 52t-121 22q-35 0 -65.5 -12.5t-56.5 -31.5t-46.5 -42t-36 -44.5t-25.5 -38.5t-14 -24l-208 135q34 60 81 116.5t104.5 101t124.5 71 t142 26.5q77 0 153 -20.5t150.5 -51.5t149.5 -67.5t151.5 -68t154.5 -53t160 -22.5l-21 -258q-140 -67 -292 -142t-318 -139t-347 -107t-378 -47h-190h-8q-27 0 -50.5 10t-41.5 27.5t-28 40.5t-10 50z"/>
    <glyph glyph-name="uniFEA4" unicode="ح" horiz-adv-x="1667" arabic-form="medial" d="M-129 97q0 26 10 49.5t27.5 41t41 28t50.5 10.5h183q123 0 248 24.5t246 64.5t235 89t215 99q-41 5 -85.5 21t-91.5 36.5t-96 43t-98 41.5t-98.5 31t-96.5 12q-37 0 -70.5 -13.5t-63 -34t-53 -44.5t-40 -44.5t-26 -34.5l-9.5 -14l-200 109q35 66 89 126.5t116.5 107 t129 74t127.5 27.5q51 0 102.5 -11.5t104 -30t106.5 -43t109 -49.5q58 -28 127 -55.5t142 -49t146.5 -35t140.5 -13.5l-43 -244q-38 -16 -73 -34.5t-72 -35.5q20 -42 61 -66t86.5 -36t88 -15t66.5 -3h14q27 0 50.5 -10.5t41 -28t27.5 -41t10 -49.5q0 -27 -10 -50 t-27.5 -40.5t-41 -27t-50.5 -9.5h-14q-98 0 -182 17.5t-152.5 51t-119 82t-80.5 110.5q-101 -50 -209 -97t-224 -83.5t-241.5 -59t-261.5 -22.5l-183 1q-27 0 -50.5 9.5t-41 27t-27.5 40.5t-10 50z"/>
    <glyph glyph-name="uniFEA2" unicode="ح" horiz-adv-x="1702" arabic-form="final" d="M1556 -580q-156 -112 -334 -174.5t-379 -62.5q-166 0 -310 47.5t-248.5 137.5t-160.5 220.5t-46 297.5q6 112 54.5 209t128.5 177t185.5 142t226.5 104t252 63t261 19q-96 34 -173 73t-143 72.5t-124 55.5t-115 22q-41 0 -79 -13.5t-72 -37.5t-62 -56t-47 -69l-213 137 q39 68 87.5 123t108 93.5t128.5 59t149 20.5q62 0 121.5 -13t116.5 -36.5t113 -54.5t110 -67q85 -56 157 -94t136.5 -63.5t124.5 -41.5t120 -28l-79 -265l-188 -24q3 -36 21 -63t45 -45.5t61 -30t70.5 -18t72.5 -8.5t67 -2q26 0 49.5 -10.5t41 -28t28 -41t10.5 -50.5 t-10.5 -50t-28 -40t-41 -26.5t-49.5 -9.5q-135 0 -231.5 25t-163 63.5t-106.5 85t-61 90t-28 78.5t-6 51q-90 -15 -181 -39.5t-176 -58t-159 -75t-129.5 -92t-88.5 -109t-35 -125.5q-4 -110 40.5 -188.5t121 -129.5t176.5 -75t208 -24q142 0 272.5 46.5t252.5 136.5 l150 -210v0z"/>
    <glyph glyph-name="uni062F" unicode="د" horiz-adv-x="1127" arabic-form="isolated" d="M171 363q38 -24 91.5 -49t111 -45.5t113 -33t97.5 -12.5q25 0 67.5 2.5t83.5 14t71 36t31 69.5q1 41 -22 92.5t-62 107t-90 111.5t-106 107.5t-110.5 95t-103.5 73.5l149 221q92 -63 181.5 -142t165 -168.5t131 -186.5t79.5 -196q26 -111 1 -205t-90 -161.5t-165 -103.5 t-224 -30q-66 0 -134 13t-133.5 34.5t-126 50t-112.5 60.5z"/>
    <glyph glyph-name="uni0631" unicode="ر" horiz-adv-x="717" arabic-form="isolated" d="M548 635q34 -96 60 -193q11 -41 22 -86.5t19.5 -91.5t13.5 -90.5t5 -83.5q0 -90 -27.5 -175.5t-76 -165t-115 -151.5t-144.5 -136t-165 -119t-176 -99l-114 229q71 35 140 77.5t131.5 90.5t116 101.5t92 110t60.5 116t22 121.5q0 57 -13 120t-31 125t-38 118.5t-33 100.5 z"/>
    <glyph glyph-name="uniFEAE" unicode="ر" horiz-adv-x="816" arabic-form="final" d="M824 -30q-12 0 -31 0.5t-41.5 4.5t-48.5 12.5t-51 24.5q-13 -126 -76.5 -241.5t-160.5 -216.5t-217.5 -185t-247.5 -147l-112 231q70 36 140.5 78t134.5 89.5t119.5 100.5t96 109.5t64 116.5t23.5 123q0 8 -0.5 16.5t-1.5 16.5v-1q-7 56 -23.5 113.5t-35.5 111.5 t-38 103.5t-32 89.5l240 100q39 -117 73.5 -193.5t69.5 -121t71.5 -62t80.5 -17.5h5q27 0 50.5 -10.5t41 -28t27.5 -41t10 -49.5q0 -27 -10 -50t-27.5 -40.5t-41.5 -27t-51 -9.5z"/>
    <glyph glyph-name="uni0633" unicode="س" horiz-adv-x="2724" arabic-form="isolated" d="M2486 954q6 -11 20.5 -39t32.5 -69t37.5 -92t35.5 -107t26.5 -115.5t10.5 -116.5q-1 -92 -27.5 -172.5t-78 -140.5t-126.5 -94.5t-174 -34.5q-48 0 -86 10.5t-68 29.5t-52.5 44t-39.5 55q-22 -31 -45 -57t-54.5 -44.5t-75.5 -28.5t-107 -10q-57 0 -100 11t-72 25 q6 -120 -23.5 -218.5t-86 -175.5t-134 -134.5t-169 -94.5t-191 -55.5t-198.5 -18.5q-147 0 -271 48.5t-214.5 136t-141.5 210t-51 271.5q3 87 22.5 176.5t49.5 173.5t68 159t77 134l207 -153q-35 -56 -67.5 -116t-57.5 -122.5t-40.5 -127.5t-15.5 -131q-3 -83 27 -155.5 t87.5 -127t138 -86t178.5 -31.5q108 0 195.5 20t152.5 57t109 87.5t65 112.5q28 93 26 184t-24.5 182t-60.5 181t-81 180l225 138q14 -36 33 -88t43.5 -108t54 -111t64.5 -96.5t76 -63.5t89 -13q50 1 79.5 25t45.5 62.5t20.5 88t4.5 102.5l-5 169l245 25q2 -24 3 -46 q1 -19 1.5 -39t1.5 -33q1 -23 5 -59t12 -76t20 -81t30 -73.5t41.5 -53t54.5 -20.5q78 0 115 52.5t37 152.5q0 38 -12.5 84.5t-34 98.5t-50 108.5t-60.5 114.5z"/>
    <glyph glyph-name="uniFEB3" unicode="س" horiz-adv-x="1634" arabic-form="initial" d="M-122 97q0 25 9.5 48t26 40t38.5 28t47 13q60 0 106.5 24t81 64t59.5 91t43.5 105t32 106.5t24.5 94.5l250 -55q-9 -28 -23.5 -71.5t-28.5 -92t-23 -98t-6 -89t21.5 -64t60.5 -24.5q45 0 81 25.5t64.5 67t50 94.5t37 108.5t26 108.5t16.5 95l234 -45q-3 -31 -9.5 -65 t-13.5 -70.5t-12 -76t-5 -81.5q0 -33 6.5 -62t22 -51.5t41 -36t62.5 -14.5q71 0 116 36t45 110q0 54 -14.5 117t-35 123.5t-43.5 113t-40 87.5l215 120q6 -11 19.5 -40.5t30.5 -71.5t35.5 -95t33.5 -111t25 -119.5t10 -120.5q0 -93 -28.5 -168t-84 -128t-136.5 -81.5 t-186 -27.5q-51 -1 -91.5 12t-73 35.5t-58 51.5t-45.5 59q-23 -34 -50 -62t-62.5 -49t-80 -33.5t-102.5 -13.5q-49 -1 -89 11.5t-72.5 34t-59 50.5t-48.5 61q-19 -28 -44 -54.5t-61 -46.5t-86.5 -32.5t-120.5 -12.5h-17q-25 1 -47 11.5t-38.5 28t-26 40t-9.5 48.5z"/>
    <glyph glyph-name="uniFEB4" unicode="س" horiz-adv-x="1851" arabic-form="medial" d="M-138 98q0 25 10.5 48t29.5 40t44 27.5t54 12.5q59 0 109 20.5t93.5 74t80.5 146.5t70 238l245 -69q-12 -41 -23.5 -75t-20.5 -67t-14.5 -68.5t-5.5 -80.5q0 -23 4 -45t13 -39t23.5 -27t34.5 -9q37 1 70 27t61.5 67t52 92.5t42 105.5t31.5 105t20 90l236 -48 q-13 -60 -21 -111t-10 -101q-2 -38 2 -78t17 -72t36.5 -52.5t61.5 -20.5q44 0 70 33.5t40 85.5t18.5 115.5t4.5 123.5v30.5t-0.5 21.5t-1 22.5t-0.5 34.5l253 20q3 -33 5.5 -64.5t6 -65t8 -71t10.5 -81.5q7 -52 30 -91t54.5 -65t66.5 -39t66 -13h12q30 0 55 -10t43 -27 t28 -40.5t10 -50.5t-10 -50t-29 -40.5t-46.5 -27.5t-62.5 -10q-49 0 -96.5 10t-91 31t-80.5 53.5t-65 77.5q-10 -17 -21 -31t-23 -27q-49 -53 -114.5 -83.5t-139.5 -30.5q-94 0 -170.5 45t-121.5 120q-29 -37 -62.5 -67.5t-72 -53t-81.5 -35t-90 -12.5q-45 0 -87 11.5 t-78 33.5t-65 53.5t-48 70.5q-25 -44 -57 -75.5t-72.5 -51.5t-90.5 -29.5t-111 -9.5q-31 0 -56.5 10t-44 27.5t-28.5 40.5t-10 50z"/>
    <glyph glyph-name="uniFEB2" unicode="س" horiz-adv-x="2889" arabic-form="final" d="M2228 -28q-47 0 -83.5 10.5t-65.5 29.5t-51.5 44.5t-39.5 54.5q-22 -31 -45 -57t-54.5 -44.5t-75.5 -28.5t-107 -10q-57 0 -100 11t-72 25q6 -120 -23.5 -218.5t-86 -175.5t-134 -134.5t-169 -94.5t-191 -55.5t-198.5 -18.5q-147 0 -271 48.5t-214.5 136t-141.5 210 t-51 271.5q3 87 22.5 176.5t49.5 173.5t68 159t77 134l207 -153q-35 -56 -67.5 -116t-57.5 -122.5t-40.5 -127.5t-15.5 -131q-3 -83 27 -155.5t87.5 -127t138 -86t178.5 -31.5q108 0 195.5 20t152.5 57t109 87.5t65 112.5q28 93 25.5 181t-25.5 176.5t-60.5 179.5t-79.5 190 l225 138q14 -36 33 -88t43.5 -108t54 -111t64.5 -96.5t76 -63.5t89 -13q50 1 79.5 25t45.5 62.5t20.5 88t4.5 102.5l-5 169l245 25q2 -24 3 -46q1 -19 1.5 -39t1.5 -33q1 -23 5 -59t12 -76t20 -81t30 -73.5t41.5 -53t54.5 -20.5q44 0 69.5 34t38 87.5t16 118t3.5 124.5v30.5 t-0.5 21.5t-1 22.5t-0.5 34.5l253 20q3 -33 5.5 -64.5t6 -65t8 -71t10.5 -81.5q7 -52 30 -91t54.5 -64.5t66.5 -38.5t66 -13h12q30 0 55 -10t43 -27.5t28 -41t10 -50.5t-10 -50t-28 -40.5t-43.5 -27.5t-56.5 -10q-116 0 -201 41t-142 131q-48 -79 -129 -124t-189 -45z"/>
    <glyph glyph-name="uni0635" unicode="ص" horiz-adv-x="2885" arabic-form="isolated" d="M836 -679q-99 0 -196.5 16t-184 53.5t-157 98.5t-115.5 151q-16 33 -30 70.5t-24.5 76.5t-16.5 78.5t-6 76.5q0 71 11.5 141t29.5 136t41 126.5t46 112.5t44 93t36 69l200 -142q-7 -9 -22 -36t-34 -67t-39.5 -91t-37 -108t-27.5 -117t-11 -119q0 -99 42 -168t110 -111.5 t154.5 -61.5t176.5 -19q103 0 190.5 29t153 83t105.5 131t48 174q1 11 1.5 25t0.5 25q0 78 -15 153t-36.5 143.5t-46.5 129.5t-45 111l231 126l32 -83q15 -38 31.5 -78.5t36.5 -78t44 -69.5t53 -53q42 88 114.5 174t162 158t188.5 124t195 73q73 17 145.5 12t138 -29 t120.5 -64.5t94 -94.5t58.5 -119t14.5 -137q-7 -95 -44 -170t-94 -131.5t-130.5 -96t-153.5 -64.5t-163 -36t-159 -11q-105 0 -205.5 17t-183.5 46q-38 15 -72 30.5t-66 35.5v-32q0 -155 -54 -285.5t-151 -225.5t-232 -148t-297 -53zM2319 624q-74 -21 -150.5 -59 t-145.5 -89t-123.5 -111t-83.5 -124q27 -8 61.5 -16t72.5 -15t77.5 -11.5t76.5 -4.5q42 0 96 5.5t110.5 17.5t111.5 32.5t98.5 50t71.5 70t31 92.5q3 48 -25.5 84.5t-73.5 58t-100 27.5t-105 -8z"/>
    <glyph glyph-name="uniFEBB" unicode="ص" horiz-adv-x="1871" arabic-form="initial" d="M-129 98q0 27 10.5 50.5t28 40.5t41 27t49.5 10q54 0 92.5 8t65 20.5t42.5 27t26 27.5q30 43 57 104t41 133q4 22 8 40.5t8.5 37t10 38.5t13.5 45l216 -69q-15 -63 -23.5 -109.5t-8.5 -96.5q0 -32 11 -62t24 -56q17 34 42.5 77.5t59 91t75 97.5t89.5 97q45 43 96.5 79.5 t106 65t110.5 48.5t110 29l-1 -1q60 12 113 12q102 0 187.5 -36.5t153.5 -106.5h-1q63 -64 93 -141.5t25 -158.5q-9 -96 -53 -182.5t-119 -149.5q-71 -56 -157.5 -91.5t-179 -56.5t-184.5 -29t-173 -8q-99 0 -178 6.5t-145.5 25t-126.5 52.5t-121 89q-68 -78 -165 -115 t-231 -38h-9q-26 0 -49.5 10t-41 27t-28 40.5t-10.5 50.5zM1021 503q-41 -33 -78 -70t-68 -74t-55 -71.5t-39 -61.5q67 -3 150.5 -6t171.5 1.5t174.5 18.5t158 43.5t122 78.5t68.5 123q-5 51 -35.5 86t-75 54.5t-97 24.5t-101.5 -3q-38 -6 -77.5 -20.5t-78 -34t-74.5 -42.5 t-66 -47z"/>
    <glyph glyph-name="uniFEBC" unicode="ص" horiz-adv-x="1933" arabic-form="medial" d="M-129 97q0 27 10 50.5t27.5 41t40.5 27.5t50 10h9q112 3 148 21h-1q21 11 38 26t33 35q32 42 52 106t40 149v-1q8 38 21 77t24 76l232 -77q-11 -24 -18.5 -44.5t-13 -41.5t-8 -43.5t-2.5 -51.5q0 -35 14.5 -71t28.5 -68q18 34 43 76.5t58 89.5t73.5 96.5t88.5 96.5 q93 88 201.5 144.5t220.5 77.5q56 10 108 10q103 0 190.5 -35.5t155.5 -107.5h-1q64 -64 93.5 -141t24.5 -158q-11 -138 -86 -241h167q27 0 50.5 -10t41 -27.5t28 -41t10.5 -50.5t-10.5 -50t-28 -40.5t-41 -27t-50.5 -9.5l-252 -1q-107 0 -173.5 6t-110.5 23 q-105 -28 -211 -37.5t-200 -9.5q-75 0 -137 4.5t-100 8.5q-5 0 -11.5 1t-11.5 1q-45 5 -85.5 14.5t-75.5 26.5l1 -1q-47 20 -85.5 51t-67.5 68q0 -1 0.5 -2t-2.5 4q-31 -35 -67.5 -61t-80.5 -46h1q-105 -50 -265 -50q-27 0 -50 9.5t-40.5 27t-27.5 40.5t-10 50zM1007 496 q-37 -35 -69 -71t-59 -71t-48 -68t-36 -60q76 -10 165 -12.5t180 4.5t176.5 25t154.5 49.5t114.5 78t55.5 110.5q-8 46 -39.5 82t-74.5 59t-92.5 31.5t-92.5 -0.5q-42 -6 -87.5 -19.5t-90 -33.5t-85 -46.5t-72.5 -57.5z"/>
    <glyph glyph-name="uniFEBA" unicode="ص" horiz-adv-x="2868" arabic-form="final" d="M795 -679q-99 0 -196.5 16t-184 53.5t-157 98.5t-115.5 151q-16 33 -30 70.5t-24.5 76.5t-16.5 78.5t-6 76.5q0 71 11.5 141t29.5 136t41 126.5t46 112.5t44 93t36 69l200 -142q-7 -9 -22 -36t-34 -67t-39.5 -91t-37 -108t-27.5 -117t-11 -119q0 -99 42 -168t110 -111.5 t154.5 -61.5t176.5 -19q103 0 190.5 29t153 83t105.5 131t48 174q1 11 1.5 25t0.5 25q0 78 -15 153t-36.5 143.5t-46.5 129.5t-45 111l231 126l32 -83q15 -38 31.5 -78.5t36.5 -78t44 -69.5t53 -53q42 88 114.5 174t162 158t188.5 124t195 73q73 17 145.5 12t138 -29 t120.5 -64.5t94 -94.5t58.5 -119t14.5 -137q-9 -112 -59 -199q3 -2 15.5 -5.5t29.5 -6.5t37.5 -5.5t38.5 -2.5h8q27 0 50.5 -10t41 -27.5t27.5 -41t10 -50.5t-10 -50t-27.5 -40t-41 -27t-50.5 -10q-56 0 -104 9t-87 22.5t-68 30.5t-47 34q-56 -35 -119 -59.5t-129 -40.5 t-132.5 -23t-127.5 -7q-105 0 -205.5 17t-183.5 46q-38 15 -72 30.5t-66 35.5v-32q0 -155 -54 -285.5t-151 -225.5t-232 -148t-297 -53zM2278 624q-74 -21 -150.5 -59t-145.5 -89t-123.5 -111t-83.5 -124q27 -8 61.5 -16t72.5 -15t77.5 -11.5t76.5 -4.5q42 0 96 5.5 t110.5 17.5t111.5 32.5t98.5 50t71.5 70t31 92.5q3 48 -25.5 84.5t-73.5 58t-100 27.5t-105 -8z"/>
    <glyph glyph-name="uni0637" unicode="ط" horiz-adv-x="1776" arabic-form="isolated" d="M856 -30q-112 0 -214.5 6.5t-201 24t-194.5 48t-194 78.5l94 241q76 -29 141 -51.5t121 -36.5q20 29 48.5 67t67.5 89q7 46 11.5 85t7.5 75t4 69.5t1 68.5q0 46 -4.5 120t-11 159t-14.5 172.5t-15.5 161.5t-13.5 125.5t-8 64.5l256 68q6 -49 13 -114.5t15 -139.5 t15.5 -155t13.5 -161t9.5 -157.5t2.5 -144.5q56 50 106 91.5t104 72t117 48.5t145 20q74 2 146 -20.5t131 -67t99 -111t49 -151.5q1 -123 -36.5 -218.5t-102 -167t-150 -121t-180 -80.5t-192 -44.5t-186.5 -13.5zM649 226q134 -17 250 -10.5t211 30t168.5 60t122.5 80 t72.5 90t19.5 89.5q-4 40 -28 67t-56.5 43t-68 22.5t-63.5 6.5q-67 0 -149.5 -35.5t-167.5 -98.5t-166 -151t-145 -193z"/>
    <glyph glyph-name="uniFEC3" unicode="ط" horiz-adv-x="1509" arabic-form="initial" d="M505 226q61 0 140.5 3t163.5 14t163.5 33t141.5 59t97.5 92.5t30.5 133.5q-2 30 -19.5 56t-48 44.5t-73 29t-94.5 8.5q-50 -2 -118.5 -25.5t-148 -78.5t-164.5 -145t-166 -224h95zM-132 98q0 26 10.5 49t28 40.5t41 28t49.5 10.5h9h126l7 13q17 30 48.5 80t79.5 112 q9 63 15 159t7 208q0 41 -0.5 81t-2.5 85.5t-6 98t-9.5 119t-13.5 149t-19 186.5l263 68q51 -381 51 -774v-26v-14v-14v-27q54 46 112.5 88t122 74t132.5 51t144 19q76 0 144 -24t120.5 -69.5t86.5 -110.5t42 -146q5 -114 -28 -206.5t-93.5 -164t-144 -123t-180 -84.5 t-202.5 -49t-210 -16l-592 1h-9q-26 0 -49.5 9.5t-41 27t-28 41t-10.5 50.5z"/>
    <glyph glyph-name="uniFEC4" unicode="ط" horiz-adv-x="1583" arabic-form="medial" d="M-132 98q0 26 10.5 49t28 40.5t41 28t49.5 10.5h135l7 13q17 30 48.5 80t79.5 112q9 63 15 159t7 208q0 41 -0.5 81t-2.5 85.5t-6 98t-9.5 119t-13.5 149t-19 186.5l263 68q51 -381 51 -774v-26v-14v-14v-27q54 46 112.5 88t122 74t132.5 51t144 19q76 0 144 -24 t120.5 -69.5t86.5 -110.5t42 -146q5 -121 -31.5 -217t-103.5 -169h264q27 0 50.5 -9.5t40.5 -27t27 -40.5t10 -50t-10 -50t-27 -40.5t-41 -28t-51 -10.5h-247q-79 0 -176.5 7t-214.5 37q-85 -23 -172.5 -34t-175.5 -11l-592 1h-9q-26 0 -49.5 9.5t-41 27t-28 41t-10.5 50.5z M505 226q61 0 140.5 3t163.5 14t163.5 33t141.5 59t97.5 92.5t30.5 133.5q-2 30 -19.5 56t-48 44.5t-73 29t-94.5 8.5q-50 -2 -118.5 -25.5t-148 -78.5t-164.5 -145t-166 -224h95z"/>
    <glyph glyph-name="uniFEC2" unicode="ط" horiz-adv-x="1867" arabic-form="final" d="M906 -30q-112 0 -214.5 6.5t-201 24t-194.5 48t-194 78.5l94 241q76 -29 141 -51.5t121 -36.5q20 29 48.5 67t67.5 89q7 46 11.5 85t7.5 75t4 69.5t1 68.5q0 46 -4.5 120t-11 159t-14.5 172.5t-15.5 161.5t-13.5 125.5t-8 64.5l256 68q5 -49 12.5 -114.5t15.5 -139.5 t16 -155t13.5 -161t9 -157.5t2.5 -144.5q56 50 106 91.5t104 72t117 48.5t145 20q74 2 146 -20.5t131 -67t99 -111t49 -151.5q1 -125 -37.5 -221t-104.5 -168h34h222q27 0 50.5 -9.5t40.5 -27t27 -40.5t10 -50t-10 -50t-27 -40.5t-41 -28t-51 -10.5h-257q-22 0 -61 0.5 t-84.5 3.5t-92 9.5t-83.5 18.5q-45 -12 -94.5 -18.5t-99.5 -9.5t-98 -3.5t-90 -0.5zM699 226q134 -17 250 -10.5t211 30t168.5 60t122.5 80t72.5 90t19.5 89.5q-4 40 -28 67t-56.5 43t-68 22.5t-63.5 6.5q-67 0 -149.5 -35.5t-167.5 -98.5t-166 -151t-145 -193z"/>
    <glyph glyph-name="uni0639" unicode="ع" horiz-adv-x="1559" arabic-form="isolated" d="M828 -805q-75 0 -154.5 14t-157.5 43.5t-151.5 75t-135.5 109.5q-76 84 -115 193t-39 230q0 117 38 227t113 206q69 87 156 149t187 111q-28 24 -53.5 55t-45 70.5t-31 87.5t-11.5 107q1 58 19.5 113.5t50 104.5t75 91t95 72.5t108.5 48.5t117 20q59 3 115 -9t109.5 -35 t104.5 -55t101 -69l-146 -200q-40 32 -85 57q-38 21 -86.5 38.5t-99.5 15.5q-48 -3 -91.5 -23t-72.5 -56q-17 -21 -29.5 -54.5t-14.5 -69.5t9.5 -70t43.5 -56q35 -23 90 -38t127 -15q22 0 45.5 1.5t49.5 5.5q46 6 91.5 13t82.5 13q43 7 83 14l56 -256q-50 -6 -113.5 -16.5 t-133 -24t-140.5 -29t-136 -33t-119 -35.5t-90 -35q-24 -12 -57.5 -32t-69 -48t-70.5 -64.5t-62.5 -81.5t-44.5 -98.5t-17 -114.5q0 -99 43 -174t114 -125t162.5 -75.5t189.5 -25.5q124 0 253 45t240 137l149 -215q-92 -76 -177.5 -122t-166 -71t-156 -33.5t-146.5 -8.5z "/>
    <glyph glyph-name="uniFECB" unicode="ع" horiz-adv-x="1072" arabic-form="initial" d="M876 557q-38 43 -84 76q-40 29 -93 52.5t-116 23.5q-51 0 -89 -17.5t-64 -46t-39 -65.5t-13 -77q0 -56 25 -101.5t67.5 -77.5t98 -48t115.5 -12q58 4 116.5 12.5t106.5 16.5q55 10 107 21l31 -249q-62 -16 -139 -32.5t-176.5 -30t-226 -22t-285.5 -8.5l-218 -2 q-27 0 -50.5 10t-41.5 27t-28 40.5t-10 50.5q0 26 10.5 49t28.5 40t41.5 27.5t49.5 11.5l215 2q-54 63 -73.5 129t-19.5 146q0 94 35 178t96.5 147t146 100t183.5 37q49 0 94.5 -9t86.5 -24t77.5 -34t66.5 -38q71 -46 130 -104z"/>
    <glyph glyph-name="uniFECC" unicode="ع" horiz-adv-x="1142" arabic-form="medial" d="M1146 226q26 0 49.5 -10.5t41 -28t28 -41t10.5 -50.5t-10.5 -50t-28 -40t-41 -27t-49.5 -10q-79 0 -155 5.5t-145.5 20.5t-131 42t-112.5 69q-55 -38 -128.5 -64.5t-154.5 -42.5t-163.5 -23t-154.5 -7q-26 0 -49.5 10t-41 27t-28 40t-10.5 50t10.5 50.5t28 41t41 28 t49.5 10.5q43 0 90.5 3t94.5 8.5t92 14t82 19.5q-39 39 -74 74.5t-70.5 71t-74 73t-83.5 79.5l14 208q57 50 116 84t116.5 56t110.5 33t97 15q49 5 100.5 4.5t102 -6.5t98.5 -18.5t90 -31.5q57 -25 92.5 -55.5t56 -61t28.5 -59t9 -49.5q4 -47 -14 -103.5t-51.5 -114.5 t-78.5 -112.5t-95 -97.5q63 -17 139 -25.5t157 -8.5zM325 660q35 -43 74 -85t76 -80t69 -69.5t54 -53.5q34 22 76.5 60t82 80t69 82t38.5 66q-24 13 -55 24t-65.5 19t-70 12t-68.5 4q-31 0 -68 -4t-75 -12t-73.5 -19t-63.5 -24z"/>
    <glyph glyph-name="uniFECA" unicode="ع" horiz-adv-x="1357" arabic-form="final" d="M674 -557q73 -12 146.5 -8.5t142.5 19t132.5 42.5t116.5 62l135 -224q-58 -35 -119.5 -64.5t-127 -50.5t-135.5 -32.5t-146 -9.5q-95 2 -194.5 19.5t-191 56.5t-170 102t-132.5 156v-1q-35 57 -56 127.5t-21 144.5q0 77 22.5 151t54.5 134q30 53 71 100.5t90 88.5 t103 74.5t110 59.5q-32 30 -65.5 59.5t-64.5 56t-58 49t-45 38.5l-19 214q45 41 95.5 74.5t101 59.5t97.5 43.5t85 26.5q56 13 111 19t109 6q58 0 111.5 -7.5t100.5 -23.5l-1 1q115 -35 176 -107.5t57 -172.5q-4 -186 -168 -316q-29 -23 -65.5 -44.5t-70.5 -39.5 q40 -22 85.5 -40.5t93 -31.5t94 -20.5t90.5 -7.5q27 0 50 -10.5t40 -28.5t27 -41t10 -49q0 -27 -10 -50t-27 -40.5t-40 -27.5t-50 -10q-83 0 -163 17.5t-158 49t-155 75t-153 96.5q-73 -29 -148 -68t-136.5 -90t-100.5 -116t-39 -147q0 -46 18.5 -88.5t48.5 -78.5t69 -66 t80.5 -53t82 -37.5t73.5 -19.5zM853 792q-40 0 -84 -5.5t-87 -15t-82.5 -23t-69.5 -29.5q21 -22 47 -50.5t55.5 -59.5t60.5 -61.5t61 -56.5q66 28 123 57t99.5 59.5t67.5 63.5t26 68q-1 4 -13 12t-38.5 16t-67 15.5t-98.5 9.5z"/>
    <glyph glyph-name="uniFEDB" unicode="ك" horiz-adv-x="1013" arabic-form="initial" d="M-138 97q0 27 10 51t28 41t43.5 27t56.5 10h56h49q57 0 119 1.5t118.5 10.5t102 29t69.5 57v-1q35 52 35 122q0 21 -3.5 44t-9.5 48v-1q-11 39 -49.5 101t-97.5 133.5t-134 147t-158 142.5l27 239l796 354l101 -238l-659 -275q44 -38 92.5 -83.5t94.5 -96.5 q69 -77 117 -150t77.5 -140t43 -127.5t13.5 -113.5q0 -72 -18.5 -132t-44.5 -108q-98 -173 -322 -213v1q-23 -5 -46 -6.5t-46 -1.5l-323 1q-30 0 -55.5 10t-44 27t-28.5 40t-10 50z"/>
    <glyph glyph-name="uniFEDC" unicode="ك" horiz-adv-x="1188" arabic-form="medial" d="M-139 98q0 27 10.5 50t28 40.5t41 27.5t49.5 10h9h330q35 0 70 14t63.5 36.5t47 52t21.5 60.5q4 54 -12 112.5t-47 118.5t-73 119t-89.5 112t-97.5 99t-95 81l24 282l875 370l93 -229l-755 -310q77 -67 134.5 -133.5t103.5 -133t83 -133.5t72 -134h-1q25 -47 50 -93.5 t54 -94.5v1q27 -45 57.5 -81t66.5 -61t78.5 -39.5t93.5 -15.5h-1h42q27 0 50.5 -10t40.5 -27.5t27 -40.5t10 -50t-10 -50.5t-27 -40.5t-40.5 -27t-50.5 -10h-8q-74 0 -131 9.5t-112 27.5q-65 23 -121 66.5t-101 94.5q-29 -44 -70 -83q-35 -32 -74 -53t-81 -34t-86 -19.5 t-87 -8.5h-326q-26 0 -49.5 10t-41 27t-28 40.5t-10.5 50.5z"/>
    <glyph glyph-name="uni0643" unicode="ك" horiz-adv-x="2024" arabic-form="isolated" d="M1164 830q-20 6 -39 10q-17 4 -36.5 7.5t-36.5 3.5q-14 0 -27 -1.5t-26 -6.5h3q-12 -5 -25.5 -16.5t-25 -26t-19 -30t-7.5 -27.5q0 -5 1 -11t4 -13q6 -13 19.5 -20.5t31.5 -11.5t37 -5.5t36 -1.5t30 5q26 8 53.5 23.5t50.5 29.5q27 17 53 36l95 -127q-27 -20 -56 -38.5 t-62 -38t-70.5 -40t-81.5 -44.5h1l-253 -141l-77 140l157 88q-29 21 -51 49t-36 59q-8 19 -12 40t-4 46q0 35 11 68.5t31.5 63t48.5 52.5t61 37q26 10 54 15.5t55 5.5q25 0 53 -5t51 -10q27 -6 54 -14zM1892 956q2 -54 3.5 -100.5t3.5 -88.5q4 -94 5.5 -160.5t1.5 -98.5 q-1 -52 -12.5 -106.5t-39.5 -106.5q-45 -80 -120.5 -142.5t-178.5 -104.5q-114 -44 -259 -66.5t-325 -22.5q-364 4 -586 86q-218 83 -296 244v-1q-45 87 -45 192q0 49 10.5 101.5t30.5 105.5q11 28 20 49t18 39.5t20 37t25 43.5l211 -156q-21 -33 -39.5 -69.5t-29.5 -74.5 t-10 -76.5t19 -74.5q45 -90 213 -138t439 -49q154 0 277.5 17.5t211.5 51.5q60 26 103 58t64 71q13 23 17.5 49t5.5 53v-2q-2 59 -6 169.5t-11 261.5q-4 109 -9 203t-10 165.5t-9 116.5t-5 56l251 57q1 -16 6 -68.5t11.5 -131.5t12.5 -179t11 -210z"/>
    <glyph glyph-name="uniFEDA" unicode="ك" horiz-adv-x="2109" arabic-form="final" d="M1936 297q7 -17 19 -30t31.5 -22t48 -14t69.5 -5h6q27 0 50 -10t40.5 -27.5t27.5 -40.5t10 -50t-10 -50t-27.5 -40.5t-40.5 -27.5t-50 -10h-6q-79 1 -139 13t-107 38q-42 24 -72.5 51.5t-56.5 71.5q-77 -68 -192 -113q-114 -44 -259 -66.5t-325 -22.5q-364 4 -586 86 q-218 83 -296 244v-1q-45 87 -45 192q0 49 10.5 101.5t30.5 105.5q11 28 21.5 50t21.5 42t23.5 40t26.5 45l210 -156q-13 -20 -22 -33t-16 -25t-13 -25t-13 -33q-22 -60 -22 -111q0 -42 17 -76q45 -90 213 -138t439 -49q154 0 277.5 17.5t211.5 51.5q60 26 103 58t64 71 q13 23 17.5 49t5.5 53q-1 27 -3.5 64.5t-5.5 85.5q-4 57 -8 128.5t-8 150.5q-4 109 -9.5 204t-11 168t-10 119t-5.5 57l254 50q1 -16 6 -68.5t11.5 -131.5t12.5 -179t11 -210v1q6 -109 10 -177t6.5 -109t3.5 -61.5t1 -34.5q4 -93 16 -156t33 -104v-1zM1095 852q-20 6 -39 10 q-17 4 -36.5 7.5t-36.5 3.5q-14 0 -27 -1.5t-26 -6.5h3q-24 -10 -38.5 -31t-14.5 -45q0 -5 1 -11t4 -13q11 -26 39 -44.5t61 -18.5q17 0 30 5q26 8 53.5 23.5t50.5 29.5q27 17 53 36l95 -127q-27 -20 -56 -38.5t-62 -38t-70.5 -40t-81.5 -44.5h1l-253 -141l-77 140l157 88 q-29 21 -51 49t-36 59q-8 19 -12 40t-4 46q0 35 11 68.5t31.5 63t48.5 52.5t61 37q26 10 54 15.5t55 5.5q25 0 53 -5t51 -10q27 -6 54 -14z"/>
    <glyph glyph-name="uni0644" unicode="ل" horiz-adv-x="1483" arabic-form="isolated" d="M370 316q-28 -41 -51 -99q-20 -50 -36 -124.5t-16 -175.5q0 -61 18 -110t48 -86.5t68.5 -65t79.5 -45.5t80.5 -27.5t71.5 -11.5q8 -1 14.5 -1h13.5q69 0 146 23.5t142 74t107.5 130t42.5 192.5q0 79 -3 186t-7.5 227.5t-10.5 248.5t-12 250q-14 285 -32 596l261 49 q13 -325 24 -622q4 -127 8.5 -260t8.5 -257.5t6 -233.5t2 -188q0 -126 -30.5 -225t-82.5 -173.5t-120.5 -126.5t-143.5 -85t-152.5 -47.5t-147.5 -14.5h-19t-19 1q-63 5 -132 22.5t-135 49.5t-125.5 79.5t-104 113t-71 149.5t-25.5 189q1 133 19.5 227t40.5 154 q26 70 58 117z"/>
    <glyph glyph-name="uniFEDF" unicode="ل" horiz-adv-x="558" arabic-form="initial" d="M-128 98q0 27 10 50.5t27.5 40.5t40.5 27t50 10h9h47q101 0 140 39h-1q22 23 33 68.5t10 116.5q0 65 -4.5 187t-12.5 302q-4 110 -10 205.5t-12 167.5t-11 117.5t-6 55.5l257 55q1 -16 6 -69t11.5 -132.5t12.5 -180t11 -210.5l7 -200q4 -103 6 -177t3 -119v1 q1 -40 -2 -87t-15 -96t-35.5 -97t-63.5 -89q-114 -114 -324 -114h-47h-9q-27 0 -50 10t-40.5 27.5t-27.5 40.5t-10 50z"/>
    <glyph glyph-name="uniFEE0" unicode="ل" horiz-adv-x="659" arabic-form="medial" d="M-137 98q0 27 10 50t27.5 40.5t40.5 27.5t50 10h9h86h-1q27 1 45.5 2t31 3.5t20.5 5.5t13 8q11 9 18.5 24.5t12 36t7 43.5t4.5 46v-2q0 28 1 87t2 137.5t2 171.5t1 189q0 162 -4 295.5t-15 232.5l254 33q14 -111 19.5 -260.5t5.5 -323.5q0 -140 -3.5 -278.5t-3.5 -287.5 q0 -20 4.5 -49.5t21.5 -56.5q16 -24 45 -40.5t86 -16.5q27 0 50.5 -10t41 -27.5t28 -40.5t10.5 -50t-10.5 -50.5t-28 -40.5t-41 -27t-50.5 -10q-95 -2 -164 21.5t-114 77.5q-28 -32 -59 -51t-64.5 -29.5t-69.5 -14t-73 -4.5h-109h-9q-27 0 -50 10t-40.5 27t-27.5 40.5 t-10 50.5z"/>
    <glyph glyph-name="uniFEDE" unicode="ل" horiz-adv-x="1508" arabic-form="final" d="M370 316q-28 -41 -51 -99q-20 -50 -36 -124.5t-16 -175.5q0 -61 18 -110t48 -86.5t68.5 -65t79.5 -45.5t80.5 -27.5t71.5 -11.5q8 -1 14.5 -1h13.5q69 0 146 23.5t142 74t107.5 130t42.5 192.5q0 79 -3 186t-7.5 227.5t-10.5 248.5t-12 250q-14 285 -32 596l261 49 q8 -191 16 -391q3 -85 6.5 -180t7 -194t6.5 -198.5t6 -193.5q3 -20 12 -48t28.5 -53.5t51 -44t79.5 -18.5q27 0 50.5 -10.5t41 -28t27.5 -41t10 -49.5q0 -27 -10 -50t-27.5 -40.5t-41 -27t-50.5 -9.5q-54 0 -93 7t-71 20v-11q0 -126 -30.5 -225t-82.5 -173.5t-120.5 -126.5 t-143.5 -85t-152.5 -47.5t-147.5 -14.5h-19t-19 1q-63 5 -132 22.5t-135 49.5t-125.5 79.5t-104 113t-71 149.5t-25.5 189q1 133 19.5 227t40.5 154q26 70 58 117z"/>
    <glyph glyph-name="uni0645" unicode="م" horiz-adv-x="1196" arabic-form="isolated" d="M105 -761l-38 956q0 7 1 31.5t9.5 57t27.5 67t55 61.5q13 13 36 23t50 15.5t55 5.5t51 -6q13 40 34 84.5t46.5 87t53 80t54.5 64.5q111 109 242 105q89 -4 160 -39t122 -104q80 -111 91 -267q1 -11 1 -23v-23q0 -60 -9.5 -116.5t-31.5 -107.5v1q-32 -81 -83 -130 t-118 -60q-23 -9 -66 -2t-97.5 23.5t-116 39.5t-121 46.5t-113.5 44t-93 32.5l51 -907zM608 477q-13 -25 -23.5 -50t-20.5 -48q33 -14 77.5 -32.5t92.5 -36.5t94 -33.5t81 -23.5q7 12 13.5 31.5t11 41.5t7 44t2.5 38q0 44 -15 82.5t-39 67t-54.5 43.5t-61.5 13 q-13 -1 -33.5 -8.5t-43.5 -24t-46.5 -42.5t-41.5 -62z"/>
    <glyph glyph-name="uniFEE3" unicode="م" horiz-adv-x="1138" arabic-form="initial" d="M-127 98q0 27 10 49.5t27 40t40 27.5t50 11q73 0 127 27.5t95.5 71.5t73 99t59.5 110q26 53 54.5 105t61.5 94q49 57 110.5 89t130.5 32q82 0 151 -34t123 -98q42 -51 68.5 -116.5t34.5 -140.5v2q6 -39 6 -84q0 -51 -8.5 -99.5t-25.5 -92.5q-30 -76 -86 -128t-122 -72 q-22 -6 -44 -8.5t-45 -2.5q-42 0 -89 10.5t-94 28.5q-21 9 -47 21.5t-53 27.5t-53.5 31.5t-49.5 32.5q-39 -38 -81 -68.5t-88.5 -51.5t-98 -31.5t-110.5 -10.5q-27 0 -50 10t-40 27.5t-27 40.5t-10 50zM528 343q33 -24 74.5 -44.5t82 -35.5t75 -23.5t55.5 -8.5q13 0 25 3 q10 2 20.5 12.5t18.5 28.5t13 42t3 54q-1 13 -7.5 35t-18 48t-28.5 53t-38.5 48.5t-48 35.5t-57.5 14q-28 0 -55.5 -44t-71.5 -131z"/>
    <glyph glyph-name="uniFEE4" unicode="م" horiz-adv-x="1227" arabic-form="medial" d="M806 212q73 21 77 123q4 87 -34 155q-33 59 -85 92q-55 34 -109 23q-33 -7 -96 -132l-36 -72q-6 -13 -11 -24q-5 -9 -5 -10l-10 -24q232 -133 292 -133q10 0 17 2zM1226 228q53 0 90 -38q38 -38 38 -91t-38 -91q-37 -37 -90 -38h-1q-154 0 -223 76l-21 23l-21 -22 q-74 -73 -188 -73q-60 0 -138 26q-63 20 -134 56q-81 41 -141 82q-28 -42 -86 -85q-117 -85 -265 -85q-53 0 -90 38q-38 37 -38 90t38 91q37 38 90 38q116 0 207 108q35 42 71 105q22 40 57 112l25 50q60 119 129 180q81 72 195 72q137 0 241 -91q118 -104 135 -285v-9l1 -3 v-2q1 -3 1 -7v-3v-2q0 -3 1 -7q1 -11 2 -23q4 -39 12 -71q29 -120 139 -121h2z"/>
    <glyph glyph-name="uniFEE2" unicode="م" horiz-adv-x="1261" arabic-form="final" d="M539 385q256 -128 435 -136q-8 77 -34 161q-22 74 -52 122q-38 61 -86 80q-18 7 -49 7q-45 0 -89 -37q-35 -29 -67 -80q-37 -59 -58 -117zM1248 229q53 0 91 -37q38 -38 38 -92q0 -49 -32 -85q-33 -37 -81 -43h-2l-2 -1q-4 -1 -9 -1q-110 0 -187 85l-20 23 q-21 -21 -54 -39q-65 -37 -123 -27h-4h-4q-186 8 -562 181l40 -911l-262 -40q-5 105 -20 508q-6 145 -11 287q-5 127 -6 163q-1 46 17 98q21 59 59 99q57 59 159 59q15 0 30 -2l23 -2l8 22v1v1l1 3q3 6 5 13q9 23 19 47q35 75 78 138q60 87 129 136q85 59 180 59 q188 0 293 -152q33 -48 59 -140q9 -32 21 -81l9 -40l9 -40q22 -93 42 -134q28 -56 69 -56z"/>
    <glyph glyph-name="uni0647" unicode="ه" horiz-adv-x="974" arabic-form="isolated" d="M485 -30q-5 0 -26 1t-51.5 6t-69 15t-77.5 29q-104 48 -158 131t-54 195q0 190 170 396q29 34 52.5 58.5t43.5 44.5q-14 11 -26 21t-20 18l-18 15l162 198q40 -31 104 -89t155 -157q251 -286 251 -505q0 -109 -52.5 -193t-143.5 -132q-33 -16 -68 -26t-67 -16t-60 -8 t-47 -2zM698 347q0 28 -19 71t-51 92t-73.5 99t-86.5 93q-29 -29 -62 -73t-61.5 -93.5t-47.5 -99t-19 -89.5q0 -33 21.5 -55.5t53.5 -36.5t67.5 -20t64.5 -6q35 0 73 5t69 18.5t51 36.5t20 58z"/>
    <glyph glyph-name="uniFEEB" unicode="ه" horiz-adv-x="1488" arabic-form="initial" d="M-138 99q0 27 10 50t27.5 40t40.5 27t50 10h9q29 0 86.5 2.5t131.5 6.5q-49 63 -72.5 138t-23.5 153q0 55 12 109.5t36 103.5t59.5 91t82.5 73q-8 2 -19.5 7.5t-22.5 11.5q-12 6 -26 14l148 224q3 0 27.5 -10t63 -27t87 -39t100.5 -45.5l104 -47t97 -43.5 q94 -42 164.5 -74.5t126 -64t99 -66.5t82.5 -83q51 -62 71 -134.5t20 -141.5q0 -104 -54 -197t-158 -155q-29 -17 -71 -29t-87 -20t-89.5 -12t-78.5 -4q-42 0 -93.5 4t-104 11.5t-102.5 19.5t-89 29q-47 -15 -107 -26t-127 -19t-136.5 -12t-136.5 -4h-9q-27 0 -50 10 t-40.5 27.5t-27.5 41t-10 50.5zM556 768q-39 6 -77 -18t-67.5 -64.5t-46 -90t-11.5 -94.5v1q4 -32 18.5 -63t36 -57.5t48.5 -45.5t57 -28q38 19 75.5 39.5t68 50.5t52 74t28.5 110q3 26 -15 56.5t-46 58t-61 47.5t-60 24zM980 574q0 -94 -30.5 -184.5t-90.5 -165.5 q17 -2 33 -3t31 -1q64 0 117.5 14.5t92.5 38.5t61 56t22 68q0 32 -18.5 66t-50.5 66.5t-76 62t-95 53.5q2 -17 3 -35.5t1 -35.5z"/>
    <glyph glyph-name="uniFEEC" unicode="ه" horiz-adv-x="1005" arabic-form="medial" d="M-129 98q0 27 10 50t27 40.5t40.5 27.5t50.5 10h81q0 63 15 140.5t42 156.5t65 154.5t85.5 134t103.5 95t119 37.5q47 1 89.5 -19t78.5 -55t63.5 -82t44.5 -100t21.5 -108.5t-5.5 -108.5q-15 -76 -50.5 -152t-90 -141.5t-126.5 -115.5t-159 -73q10 -23 31.5 -60.5t47 -77 t51.5 -75t44 -55.5q-4 62 12.5 123.5t48.5 118t76.5 104.5t96.5 83.5t108.5 55.5t112.5 20q27 0 50.5 -10t41 -27.5t27.5 -40.5t10 -50t-10 -50.5t-27.5 -40.5t-41 -27t-50.5 -10h-7q-50 -5 -96 -31t-81 -66t-56 -89t-21 -100q0 -45 12 -80t49 -75l-159 -193 q-114 69 -198.5 144t-146 154.5t-103 163t-69.5 168.5v-2q-2 6 -1.5 3t-1.5 3h-127q-27 0 -50.5 10t-40.5 27t-27 40.5t-10 50.5zM599 509q2 33 -3.5 66.5t-17.5 62.5t-31 52t-43 36q-22 -7 -46.5 -36.5t-47.5 -72.5t-43 -95.5t-35 -106t-23.5 -103.5t-6.5 -89h2 q53 0 104.5 24t92.5 64t67.5 91.5t30.5 106.5z"/>
    <glyph glyph-name="uniFEEA" unicode="ه" horiz-adv-x="1090" arabic-form="final" d="M544 110q-134 0 -230 35.5t-152 100.5q-32 41 -46 88.5t-14 90.5q0 38 6.5 69t15.5 53q40 84 100.5 146.5t125.5 108t128 75.5t109 48q-5 38 -7.5 76t-5.5 76l253 54q1 -9 4 -39.5t7.5 -72.5t9.5 -89.5t9 -89t7.5 -72t4.5 -37.5q15 -128 27.5 -209t22 -128t15.5 -67 t9 -26q10 -22 22.5 -36.5t30 -23t41 -12t53.5 -3.5q26 0 49.5 -10t41 -27t28 -40.5t10.5 -50.5t-10.5 -50t-28 -40.5t-41 -27.5t-49.5 -10q-41 0 -96.5 7t-111.5 33q-40 19 -72.5 46.5t-60.5 69.5q-56 -8 -107 -12t-98 -4zM660 373q-5 27 -10 64t-10 80.5t-10.5 90.5 t-11.5 94q-26 -11 -58 -28t-66 -38.5t-66.5 -45.5t-57.5 -49.5t-40.5 -51.5t-15.5 -50q0 -22 22 -36.5t55.5 -23t73 -12t73.5 -3.5q32 0 64 2.5t58 6.5z"/>
    <glyph glyph-name="uni0648" unicode="و" horiz-adv-x="1051" arabic-form="isolated" d="M518 620q-26 0 -56 -22t-55 -56.5t-41.5 -76.5t-16.5 -82q0 -42 19.5 -69.5t50 -44.5t69 -25.5t76.5 -12.5q21 -1 46 -2t51.5 -1h52.5t49 2q-5 56 -21 106t-37.5 93t-47 77.5t-47.5 59.5v-1q-17 18 -41.5 36.5t-50.5 18.5zM64 -480q147 29 265.5 77.5t205.5 108.5 t141.5 128t72.5 136h-52t-54 1t-52 1.5t-44 2.5q-111 8 -200 47t-143 106q-38 48 -54.5 107t-16.5 124q0 51 9.5 103t27 101.5t40.5 93.5t50 80q54 69 120 104.5t138 35.5q155 0 283 -138q46 -51 82.5 -115.5t62 -138t39 -153.5t13.5 -162q0 -25 -1.5 -50t-3.5 -48 q-18 -170 -94 -307t-193.5 -238.5t-267 -166.5t-314.5 -90z"/>
    <glyph glyph-name="uniFEEE" unicode="و" horiz-adv-x="1043" arabic-form="final" d="M64 -480q147 29 265.5 77.5t205.5 108.5t141.5 128t72.5 136h-52t-54 1t-52 1.5t-44 2.5q-111 8 -200 47t-143 106q-38 48 -54.5 107t-16.5 124q0 51 9.5 103t27 101.5t40.5 93.5t50 80q54 69 120 104.5t138 35.5q155 0 283 -138q42 -47 76 -105t59 -124t40.5 -137.5 t19.5 -146.5h47q27 0 50.5 -10t41 -27t28 -41t10.5 -51q0 -26 -10.5 -49t-28 -40.5t-41 -27.5t-50.5 -10h-67q-34 -147 -114.5 -266t-193.5 -207.5t-252.5 -145.5t-291.5 -81zM518 620q-26 0 -56 -22t-55 -56.5t-41.5 -76.5t-16.5 -82q0 -42 19.5 -69.5t50 -44.5t69 -25.5 t76.5 -12.5q21 -1 46 -2t51.5 -1h52.5t49 2q-5 56 -21 106t-37.5 93t-47 77.5t-47.5 59.5v-1q-17 18 -41.5 36.5t-50.5 18.5z"/>
    <glyph glyph-name="uni0649" unicode="ى" horiz-adv-x="1733" arabic-form="isolated" d="M1365 861q89 20 184 8.5t176 -55.5l-91 -240q-52 23 -108 31t-113 -3q-34 -3 -73 -20t-77.5 -43.5t-74 -61t-63 -73t-43.5 -79t-16 -78.5q0 -23 8 -50l-1 1q8 -23 33 -39t59 -28t73.5 -21t76.5 -18q60 -14 119.5 -32t107 -49.5t77 -82t29.5 -130.5q0 -36 -6 -72 q-20 -105 -94 -192.5t-197 -149.5h1q-113 -57 -256 -87t-311 -30q-196 0 -347.5 57t-248.5 166q-45 53 -75.5 113.5t-47 126t-20 134.5t4.5 139q8 66 22 134t30 131.5t33 120.5t31.5 100t24 70t11.5 31l220 -89q-24 -75 -44 -140.5t-36 -128.5t-28.5 -126.5t-21.5 -134.5 q-5 -38 -2.5 -78.5t13.5 -80t30 -77t48 -69.5q59 -67 162 -100.5t241 -33.5q134 0 248 20.5t198.5 54.5t135 76.5t56.5 87.5q-1 9 -19 17t-45 16t-59.5 15t-62.5 15q-84 21 -156 47.5t-125 69.5t-83 109t-30 166q5 110 46 214.5t110.5 190t163 146.5t202.5 84z"/>
    <glyph glyph-name="uniFEF0" unicode="ى" horiz-adv-x="1715" arabic-form="final" d="M830 -682q-90 0 -186.5 9t-185.5 36.5t-164.5 78t-124.5 133.5l1 -2q-102 148 -102 378v25t1 26v-1q3 69 13.5 141t30 151.5t49 169t72.5 192.5l206 -95q-41 -102 -68 -188t-42.5 -160.5t-21.5 -139.5t-6 -125q0 -72 18.5 -129.5t47.5 -101.5q39 -53 98 -81.5 t124.5 -41.5t129 -15.5t110.5 -2.5q28 0 81.5 4t117 14t130.5 26t121.5 40t89 56t34.5 75q0 8 -17.5 22t-48 32t-71.5 37.5t-88 37.5q-69 23 -137 34t-135 23l34 250h775q26 0 49.5 -10t41 -27t28 -40.5t10.5 -50.5t-10.5 -50.5t-28 -40.5t-41 -27t-49.5 -10h-168 q40 -49 53.5 -96.5t14.5 -83.5q-4 -88 -45 -157.5t-105.5 -122t-146.5 -89t-168 -59.5t-169.5 -33.5t-151.5 -10.5z"/>
    <glyph glyph-name="uni066E.init" unicode="ٮ" horiz-adv-x="700" d="M-135 98q0 27 10 50.5t27.5 40.5t40.5 27t50 10h103h45q42 0 83 3.5t77 14.5t63.5 31t42.5 52q11 22 11 66q0 26 -10.5 73t-29 104t-43 118t-51.5 114l231 114q25 -57 50 -121t44.5 -131.5t31.5 -135.5t12 -133q0 -97 -33 -173q-38 -88 -107 -144.5t-164 -84.5 q-57 -16 -110.5 -19.5t-99.5 -3.5h-137h-9q-27 0 -50 10t-40.5 27t-27.5 40.5t-10 50.5z"/>
    <glyph glyph-name="uni066E.medi" unicode="ٮ" horiz-adv-x="705" d="M-128 98q0 27 10 50t27 40.5t40.5 27.5t50.5 10h17q153 0 232 52.5t79 157.5q0 28 -4 52.5t-11.5 52t-18 60.5t-22.5 77l246 69q18 -71 33.5 -148.5t15.5 -162.5q0 -34 5.5 -71t21 -68t42 -51t68.5 -20q26 0 49.5 -10t41 -27.5t28 -40.5t10.5 -50t-10.5 -50.5t-28 -40.5 t-40.5 -27t-49 -10q-97 0 -164.5 30.5t-113.5 80.5q-135 -111 -410 -111h-17q-27 0 -50.5 10t-40.5 27t-27 40.5t-10 50.5z"/>
    <glyph glyph-name="uni066E.fina" unicode="ٮ" horiz-adv-x="2316" d="M2308 -30q-83 0 -152 14t-126 44.5t-101.5 78t-77.5 114.5q-275 -254 -823 -254q-311 2 -516.5 78t-302.5 232q-38 64 -54.5 133t-16.5 135q0 81 20 156v-1q12 49 25 85.5t24 61.5t19 39t11 19l193 -121q-10 -18 -23 -39t-24.5 -49t-19.5 -66t-8 -89q0 -35 13 -71.5 t33 -68.5q28 -47 85 -80t138.5 -54t183.5 -31t220 -10q107 0 203 8t178.5 25.5t149 45t115.5 67.5q44 34 71 79t45 94.5t30 101.5t26 100l230 -62q-13 -54 -27.5 -107.5t-13.5 -110.5v1q3 -55 19 -100t49.5 -76.5t85.5 -48.5t127 -17q27 0 50.5 -10t41 -27t27.5 -40.5 t10 -50.5t-10 -50.5t-27.5 -40.5t-41 -27t-50.5 -10h-8v0z"/>
    <glyph glyph-name="uni066F.init" unicode="ٯ" horiz-adv-x="895" d="M-131 98q0 27 10 50.5t28 40.5t41.5 27t50.5 10q96 0 191.5 8t178 21t145.5 29.5t94 33.5h-102q-57 0 -111.5 9.5t-102.5 28t-88 46t-68 63.5q-25 32 -46.5 84t-21.5 129q0 40 6 79q14 81 42.5 148.5t70.5 119.5v-1q50 65 111.5 98t129.5 33q69 0 137.5 -35t124.5 -92 q41 -47 74 -106.5t56.5 -127t36.5 -140.5t13 -146q0 -21 -1 -43t-3 -42q-11 -97 -50.5 -168.5t-100.5 -121.5t-140.5 -81.5t-170.5 -49.5t-190 -24.5t-200 -7.5h-17q-27 0 -50 10t-40.5 27.5t-27.5 40.5t-10 50zM428 897q-18 1 -40 -11t-43 -33.5t-39 -49.5t-27.5 -58.5 t-9 -62t16.5 -58.5q6 -11 26.5 -19.5t47.5 -15t56 -10.5t53 -5q40 -2 84.5 -1t75.5 3q-9 36 -25 89.5t-41 104t-58.5 87.5t-76.5 40z"/>
    <glyph glyph-name="uni066F.medi" unicode="ٯ" horiz-adv-x="1052" d="M530 711q-26 -5 -59.5 -20t-63 -41.5t-50 -66t-20.5 -94.5q0 -18 16.5 -46.5t44 -57t63 -52.5t73.5 -34h1l2 -1q30 15 58.5 39t50.5 52.5t35.5 59t13.5 58.5q0 39 -16.5 74t-41.5 62t-53.5 45t-53.5 23zM-133 98q0 27 10 50.5t27 41t40.5 27t50.5 9.5q35 0 73 -0.5 t74 -0.5t68.5 1.5t57.5 4.5q-21 14 -44.5 38t-44 57.5t-35 76t-15.5 93.5q-3 97 27 173t87 148q59 73 134 113.5t156 37.5t150.5 -41.5t120.5 -99.5t80 -138.5t29 -158.5q0 -77 -28.5 -150t-73.5 -136q27 -4 58.5 -7t64 -5.5t64 -4t57.5 -1.5q27 0 51 -9.5t41 -27t27 -41 t10 -50.5t-10 -50.5t-27 -40.5t-41 -27t-51 -10h-9q-32 0 -69 1t-74.5 3.5t-73 5.5t-64.5 8q-58 9 -115 22t-117 45q-30 -22 -89.5 -38t-133 -26.5t-154.5 -15.5t-153 -5h-8q-27 0 -50.5 10t-40.5 27t-27 40.5t-10 50.5z"/>
    <glyph glyph-name="uni066F.fina" unicode="ٯ" horiz-adv-x="1570" d="M1068 -29q-112 10 -202 48t-142 107v-1q-38 48 -60.5 104t-22.5 122q0 51 11.5 104t31 103t44.5 95t52 81v-1q54 69 119.5 105t137.5 36q155 0 283 -139q42 -47 75.5 -105t58 -123t39.5 -136.5t20 -144.5h52q27 0 50.5 -10t41 -27t28 -41t10.5 -51q0 -26 -10.5 -49 t-28 -40.5t-41 -27.5t-50.5 -10h-65q-10 -53 -30.5 -120.5t-58.5 -138.5h1q-41 -79 -100.5 -146t-125.5 -114q-85 -57 -191 -88.5t-224 -31.5q-103 0 -196.5 19.5t-169.5 59.5q-82 42 -146.5 99.5t-107.5 134.5v-1q-47 76 -71 165t-24 189q0 146 42.5 285.5t114.5 279.5 l192 -113q-71 -133 -97.5 -243.5t-26.5 -207.5q0 -96 40 -172.5t107.5 -129t157 -80.5t189.5 -27q98 0 178.5 29t143 79.5t106.5 120t70 152.5h-6zM1037 615q-35 0 -66.5 -23.5t-54.5 -61t-35.5 -84t-8.5 -92.5q3 -36 30 -59.5t62 -37.5t68.5 -21t50.5 -8q22 -2 50.5 -2.5 t57.5 0t56 1t46 1.5q-7 100 -47.5 182.5t-94.5 150.5q-8 10 -22 20t-30 17.5t-32.5 12t-29.5 4.5z"/>
    <glyph glyph-name="uniFBA8" unicode="ہ" horiz-adv-x="728" arabic-form="initial" d="M-128 98q0 27 10 50.5t27.5 40.5t40.5 27t50 10h58h45q42 0 79.5 3.5t69.5 14.5t56 31t39 52q11 22 11 66q0 40 -11.5 98.5t-30.5 121.5q-11 34 -25.5 69t-26.5 64q-15 33 -29 66l242 93q13 -26 36.5 -82t47.5 -132q26 -82 40 -157t14 -139q0 -97 -33 -173 q-38 -88 -107 -144.5t-164 -84.5q-57 -16 -110.5 -19.5t-99.5 -3.5h-92h-9q-27 0 -50 10t-40.5 27t-27.5 40.5t-10 50.5zM469 -518q-30 3 -54 15.5t-41 31.5t-26 43.5t-9 51.5q0 41 13 83t37 88t57.5 96t74.5 107l21 -14t17 -10.5t17 -9t20 -10.5q-92 -142 -92 -222 q0 -29 27.5 -52.5t89.5 -47.5q-20 -31 -42 -58.5t-43 -47.5t-38.5 -32t-27.5 -12h-1z"/>
    <glyph glyph-name="uniFBA9" unicode="ہ" horiz-adv-x="1085" arabic-form="medial" d="M-129 98q0 26 10 49.5t27 40.5t40.5 27.5t49.5 10.5h1h6q54 0 88 4.5t46 15.5q8 6 13.5 19.5t13.5 33.5l4 9q5 14 13 32.5t23 45.5l229 -81q-10 -24 -17 -51t-11.5 -54t-6.5 -52t-2 -46q0 -45 5 -102.5t19 -115.5t39 -110t66 -86q-3 34 -4 81t6.5 98.5t27 102.5t57.5 93 h-1q44 63 117 103t167 54q25 4 50 5t45 1h93q27 0 50 -10t40.5 -27.5t27.5 -40.5t10 -50t-10 -50t-27.5 -40.5t-40.5 -27.5t-50 -10h-92q-20 0 -44 -3t-47 -10t-44.5 -17t-36.5 -23q-39 -34 -59 -84t-29 -105t-10 -109.5t0 -97.5l-179 -102q-194 123 -287 288 q-35 64 -58 133t-33 144q-34 -8 -72.5 -11t-95.5 -3q-26 0 -49.5 10t-40.5 27.5t-27 40.5t-10 50zM929 -709q-30 3 -54 15.5t-41 31.5t-26 43.5t-9 51.5q0 41 13 83t37 88t57.5 96t74.5 107l21 -14t17 -10.5t17 -9t20 -10.5q-92 -142 -92 -222q0 -29 27.5 -52.5t89.5 -47.5 q-20 -31 -42 -58.5t-43 -47.5t-38.5 -32t-27.5 -12h-1z"/>
    <glyph glyph-name="uni06BE" unicode="ھ" horiz-adv-x="1633" arabic-form="isolated" d="M63 174q0 27 10 50t27.5 40t40.5 27t50 10h9q15 0 37 -5t50 -11t61 -10t70 -2q-96 123 -96 280q0 55 12 109.5t36 103.5t59.5 91t82.5 73q-8 2 -19.5 7.5t-22.5 11.5q-12 6 -26 14l148 224q3 0 23.5 -10t52 -27t73 -39t87 -45.5t93 -47t92.5 -43.5q94 -42 162.5 -74.5 t121.5 -64t94.5 -66.5t80.5 -83q51 -62 71 -134.5t20 -141.5q0 -104 -54 -197t-158 -155q-29 -17 -69 -29t-82.5 -20t-85 -12t-76.5 -4q-85 0 -169 15.5t-162 48.5q-51 -21 -105.5 -32t-108 -14t-103 0t-90 8.5t-70 12t-42.5 10.5q-26 8 -48.5 19.5t-39.5 27t-27 36.5 t-10 48zM757 790q-39 6 -77 -17.5t-67.5 -63t-46 -88t-11.5 -93.5v1q4 -32 18.5 -62.5t36 -56t48.5 -44t57 -27.5q38 19 69 49.5t52.5 66.5t33 75.5t11.5 78.5q0 33 -9.5 64t-26 55.5t-39 41t-49.5 20.5zM1123 601q0 -94 -30.5 -184.5t-90.5 -165.5q17 -2 33 -3t31 -1 q64 0 115.5 14.5t88 38.5t56.5 56t20 68q0 32 -16.5 66t-46 66.5t-71.5 62t-93 53.5q2 -17 3 -35.5t1 -35.5z"/>
    <glyph glyph-name="uni06D2" unicode="ے" horiz-adv-x="2262" arabic-form="isolated" d="M816 -224q-30 0 -72 1.5t-86 4t-84.5 5.5t-67.5 6q-77 9 -145 25.5t-124 39.5q-66 30 -116.5 71t-73.5 89q-22 45 -22 94q0 35 11 69.5t31 69.5q35 62 105.5 104t166 70.5t211 47t241.5 32.5q0 -32 -0.5 -58.5t-1.5 -52t-1.5 -51.5t-0.5 -56q-60 -9 -133.5 -24.5 t-143 -32t-128.5 -32.5t-91 -28h1q-21 -8 -44.5 -20t-49.5 -30q22 -23 85 -40.5t156.5 -29.5t211.5 -18t250 -6q109 0 226 2.5t235.5 8t235.5 13.5t226.5 19t208.5 24.5t181 30.5q-4 -33 -7.5 -60t-7.5 -52.5t-7.5 -52t-7.5 -57.5q-83 -25 -184 -43.5t-211 -33t-224.5 -24 t-225.5 -15.5t-213.5 -8.5t-187.5 -2.5h-64t-57 1h-1z"/>
    <glyph glyph-name="uniFBAF" unicode="ے" horiz-adv-x="1631" arabic-form="final" d="M928 -508q-87 0 -178 4t-182 15q-77 8 -145.5 25.5t-124.5 40.5q-66 29 -115.5 69t-73.5 88q-23 49 -23 101q0 35 10.5 70.5t30.5 67.5q30 46 87 87.5t129 70.5q39 14 112 30.5t175.5 31t233 24t284.5 9.5h475h7q26 0 49.5 -10t41 -27.5t27.5 -41t10 -49.5t-10 -49.5 t-27.5 -41t-41 -27.5t-49.5 -10h-598q-14 0 -47.5 -0.5t-80 -2t-101.5 -4t-111.5 -7t-110.5 -11.5t-98 -16q-38 -8 -68.5 -16t-56 -18.5t-48.5 -23.5t-45 -31q39 -26 99 -45t134 -33t158 -23t172 -14.5t176.5 -7.5t170.5 -2q119 0 211 1.5t137 3.5l65 -216 q-28 -2 -74.5 -3.5t-104 -3t-122 -2.5t-128.5 -1.5t-123.5 -1t-107.5 -0.5z"/>
    <glyph glyph-name="uni06A9" unicode="ک" horiz-adv-x="2128" arabic-form="isolated" d="M975 231q24 -1 49 -1.5t47 -0.5q80 0 154 6.5t136 16.5t110 22t77 23q56 23 83 43t36 31q19 22 27 45.5t8 47.5q0 39 -22 80.5t-58 84.5t-83 85.5t-97 83.5t-100 79.5t-91 72.5q-27 23 -58 48.5t-51 43.5l29 262l867 357l101 -238l-733 -290q57 -48 116.5 -99t116 -104.5 t106.5 -109t87.5 -113t59 -116t21.5 -118.5q0 -62 -21 -126t-69 -131q-6 -9 -19.5 -24.5t-36.5 -35t-56.5 -41.5t-79.5 -44q-132 -59 -271 -79.5t-280 -20.5h-52.5t-52.5 2q-184 2 -330 23t-256 62q-218 85 -296 244v-1q-45 87 -45 192q0 49 10.5 101.5t30.5 105.5 q11 28 21 50.5t20.5 42.5t22.5 40t26 45l186 -156q-17 -23 -38.5 -63t-38 -85t-23 -87.5t7.5 -70.5q22 -45 84 -79.5t154 -57.5t210.5 -35.5t253.5 -12.5z"/>
    <glyph glyph-name="uniFB8F" unicode="ک" horiz-adv-x="2321" arabic-form="final" d="M2320 226q27 0 50.5 -10t40.5 -27t27 -40.5t10 -50.5t-10 -50t-27 -40.5t-40.5 -27.5t-50.5 -10q-161 0 -296.5 57.5t-229.5 171.5q-36 -46 -84.5 -77.5t-99.5 -54.5q-54 -24 -118 -42.5t-143 -30.5t-175 -18t-216 -6h-1q-92 1 -170 6.5t-146 16.5t-127.5 26.5 t-114.5 35.5q-218 85 -296 244v-1q-45 87 -45 192q0 49 10.5 101.5t30.5 105.5q11 28 21 50.5t20.5 42.5t22.5 40t26 45l186 -156q-17 -23 -38.5 -63t-38 -85t-23 -87.5t7.5 -70.5q26 -53 100 -88.5t178 -57t231 -31t259 -9.5q78 0 149 6.5t131 16t106.5 21t75.5 22.5 q85 33 122.5 77.5t37.5 95.5q0 49 -28.5 104t-74 111.5t-103.5 111.5t-116.5 104.5t-113 91t-93.5 71.5l26 240l941 405l99 -238l-770 -325q78 -58 148 -124t127.5 -136.5t100.5 -144t67 -147.5v1q16 -45 34.5 -92.5t46.5 -91t67 -81.5t96 -65q73 -34 185 -35h8z"/>
    <glyph glyph-name="uni06AF" unicode="گ" horiz-adv-x="2137" arabic-form="isolated" d="M975 229q24 -1 49 -1.5t47 -0.5q80 0 154 6.5t136 16.5t110 22t77 23q56 23 83 43t36 31q19 22 27 45.5t8 47.5q0 39 -22 80.5t-58 84.5t-83 85.5t-97 83.5t-100 79.5t-91 72.5q-27 23 -58 48.5t-51 43.5l29 262l867 357l101 -238l-733 -290q57 -48 116.5 -99t116 -104.5 t106.5 -109t87.5 -113t59 -116t21.5 -118.5q0 -62 -21 -126t-69 -131q-6 -9 -19.5 -24.5t-36.5 -35t-56.5 -41.5t-79.5 -44q-132 -59 -271 -79.5t-280 -20.5h-52.5t-52.5 2q-184 2 -330 23t-256 62q-218 85 -296 244v-1q-45 87 -45 192q0 49 10.5 101.5t30.5 105.5 q11 28 21 50.5t20.5 42.5t22.5 40t26 45l186 -156q-17 -23 -38.5 -63t-38 -85t-23 -87.5t7.5 -70.5q22 -45 84 -79.5t154 -57.5t210.5 -35.5t253.5 -12.5zM1997 1784l-804 -340l7 128l750 313z"/>
    <glyph glyph-name="uniFB94" unicode="گ" horiz-adv-x="1030" arabic-form="initial" d="M-134 97q0 27 10 51t28 41t43.5 27t56.5 10h56h49q57 0 119 1.5t118.5 10.5t102 29t69.5 57v-1q35 52 35 122q0 21 -3.5 44t-9.5 48v-1q-11 39 -49.5 101t-97.5 133.5t-134 147t-158 142.5l27 239l796 354l101 -238l-659 -275q44 -38 92.5 -83.5t94.5 -96.5 q69 -77 117 -150t77.5 -140t43 -127.5t13.5 -113.5q0 -72 -18.5 -132t-44.5 -108q-98 -173 -322 -213v1q-23 -5 -46 -6.5t-46 -1.5l-323 1q-30 0 -55.5 10t-44 27t-28.5 40t-10 50zM914 1760l-804 -340l7 128l750 313z"/>
    <glyph glyph-name="uniFB95" unicode="گ" horiz-adv-x="1187" arabic-form="medial" d="M-128 98q0 27 10.5 50t28 40.5t41 27.5t49.5 10h9h330q35 0 70 14t63.5 36.5t47 52t21.5 60.5q4 54 -12 112.5t-47 118.5t-73 119t-89.5 112t-97.5 99t-95 81l24 282l875 370l93 -229l-755 -310q77 -67 134.5 -133.5t103.5 -133t83 -133.5t72 -134h-1q25 -47 50 -93.5 t54 -94.5v1q27 -45 57.5 -81t66.5 -61t78.5 -39.5t93.5 -15.5h-1h42q27 0 50.5 -10t40.5 -27.5t27 -40.5t10 -50t-10 -50.5t-27 -40.5t-40.5 -27t-50.5 -10h-8q-74 0 -131 9.5t-112 27.5q-65 23 -121 66.5t-101 94.5q-29 -44 -70 -83q-35 -32 -74 -53t-81 -34t-86 -19.5 t-87 -8.5h-326q-26 0 -49.5 10t-41 27t-28 40.5t-10.5 50.5zM954 1789l-804 -340l7 128l750 313z"/>
    <glyph glyph-name="uniFB93" unicode="گ" horiz-adv-x="2309" arabic-form="final" d="M2320 226q27 0 50.5 -10t40.5 -27t27 -40.5t10 -50.5t-10 -50t-27 -40.5t-40.5 -27.5t-50.5 -10q-161 0 -296.5 57.5t-229.5 171.5q-36 -46 -84.5 -77.5t-99.5 -54.5q-54 -24 -118 -42.5t-143 -30.5t-175 -18t-216 -6h-1q-92 1 -170 6.5t-146 16.5t-127.5 26.5 t-114.5 35.5q-218 85 -296 244v-1q-45 87 -45 192q0 49 10.5 101.5t30.5 105.5q11 28 21 50.5t20.5 42.5t22.5 40t26 45l186 -156q-17 -23 -38.5 -63t-38 -85t-23 -87.5t7.5 -70.5q26 -53 100 -88.5t178 -57t231 -31t259 -9.5q78 0 149 6.5t131 16t106.5 21t75.5 22.5 q85 33 122.5 77.5t37.5 95.5q0 49 -28.5 104t-74 111.5t-103.5 111.5t-116.5 104.5t-113 91t-93.5 71.5l26 240l941 405l99 -238l-770 -325q78 -58 148 -124t127.5 -136.5t100.5 -144t67 -147.5v1q16 -45 34.5 -92.5t46.5 -91t67 -81.5t96 -65q73 -34 185 -35h8zM2010 1800 l-804 -340l7 128l750 313z"/>
    <glyph glyph-name="uni06BA" unicode="ں" horiz-adv-x="1630" arabic-form="isolated" d="M760 -718q-151 7 -267.5 43t-204.5 114q-54 48 -93.5 106t-66 123t-39 135.5t-12.5 144.5q0 158 47 315t139 296l197 -143q-18 -25 -44.5 -74t-51 -113t-41.5 -138t-17 -149q0 -89 37.5 -162t101.5 -125.5t148.5 -82t178.5 -31.5q112 -2 212.5 30.5t174.5 90.5t116 137 t38 171q-2 46 -15.5 102.5t-32.5 114.5t-40.5 113.5t-40.5 98.5t-32 69t-14 26l235 131q3 -4 16 -33t31 -76t39 -108t39.5 -128t32 -136.5t16.5 -134.5q5 -91 -13 -182.5t-59 -174t-105.5 -153.5t-153 -121.5t-202.5 -76.5t-254 -19z"/>
    <glyph glyph-name="uniFB9F" unicode="ں" horiz-adv-x="1709" arabic-form="final" d="M1707 -30q-114 0 -208 42q1 -83 -14 -170t-49 -167t-87.5 -148.5t-129.5 -114.5h1q-47 -32 -101 -55t-114.5 -38t-127.5 -23.5t-142 -12.5q-167 0 -286.5 40t-207.5 115q-106 97 -158 228.5t-52 277.5q0 84 11 158.5t33 146.5t56 147t80 161l210 -152q-31 -56 -61 -122.5 t-52.5 -138t-33 -143.5t-1.5 -138q4 -24 14.5 -57.5t31 -69.5t52 -71.5t76.5 -63t105.5 -45t139.5 -17.5h17t10 1q100 5 186 20t154.5 46.5t117.5 82t76 125.5q25 70 20.5 148.5t-30 163.5t-66.5 176t-88 185l222 141l86 -165q45 -89 87 -137t81 -70.5t74.5 -26t67.5 -3.5 q27 0 50.5 -10t41 -27t27.5 -40.5t10 -50.5t-10 -50t-27.5 -40.5t-41 -27.5t-50.5 -10z"/>
    <glyph glyph-name="uniFEAA" unicode="د" horiz-adv-x="1286" arabic-form="final" d="M519 -30q-124 0 -235.5 56t-207.5 156l147 207q91 -83 170 -121t151 -38q17 0 38 1.5t43 5t42.5 8.5t36.5 11q18 7 37.5 15t37 16.5t31.5 16.5t23 15l-319 770l237 99q35 -87 83 -202q41 -99 99.5 -241t135.5 -325l16 -39q13 -34 27 -62.5t35.5 -49t55 -32t85.5 -11.5 q26 0 49.5 -10t41 -27t28 -40.5t10.5 -50.5t-10.5 -50.5t-28 -40.5t-41 -27t-49.5 -10q-63 0 -113 9.5t-89.5 26t-70 39t-54.5 48.5q-29 -20 -74 -40.5t-88 -37.5q-58 -23 -129 -34t-151 -11z"/>
    <glyph glyph-name="uni06C1" unicode="ہ" horiz-adv-x="1359" arabic-form="final" d="M1360 226q26 0 49.5 -10t41 -27.5t27.5 -41t10 -49.5t-10 -49.5t-27.5 -41t-41 -27.5t-49.5 -10h-6q-2 0 -2.5 0.5t-2.5 0.5q-78 1 -140.5 25.5t-115.5 64t-99 89.5t-90 101l-37 45v-1q-27 32 -53.5 63t-54.5 55t-57.5 39t-62.5 15q-31 0 -71 -12q-42 -17 -77 -54.5 t-64 -89t-52 -113t-42 -126.5q-34 9 -64 17t-58.5 15.5t-58 15.5t-61.5 17q27 92 62 177t83.5 155.5t112 122.5t146.5 78q41 12 76 17.5t68 5.5q78 0 141.5 -24t118 -63.5t101.5 -89.5t92 -102v1q28 -33 59.5 -66.5t64.5 -60t67.5 -44t68.5 -18.5h8v0z"/>
    <glyph glyph-name="uni0686" unicode="چ" horiz-adv-x="1789" arabic-form="isolated" d="M1561 -563q-156 -112 -334 -174.5t-379 -62.5q-166 0 -310 47.5t-248.5 137.5t-160.5 220.5t-46 297.5q7 112 55 209t128 177t185.5 142t226.5 104t252 63t261 19q-87 33 -163 72t-144 72.5t-129.5 56t-118.5 22.5q-41 0 -84 -19.5t-82 -50t-72 -68t-52 -74.5l-213 137 q39 68 86 127t108 103.5t137 71t172 30.5q62 0 121.5 -13t116.5 -36.5t113 -54.5t110 -67q85 -56 154 -94t130.5 -63.5t118.5 -41.5t117 -28l-79 -294q-2 0 -23.5 -1.5t-59.5 0.5q-70 4 -154.5 -1t-175.5 -20t-183.5 -39t-179 -57t-162.5 -75t-133 -93t-91 -110.5 t-36 -127.5q-4 -110 40.5 -188.5t121 -129.5t176.5 -75t208 -24q142 0 272.5 46.5t252.5 136.5l150 -210v0zM698.217 -150.049l-163.494 164.477l165.418 164.477l163.494 -163.515zM1061.75 -148.125l-163.494 163.515l165.418 165.438l163.494 -164.477zM881.907 -111.575 l150.03 -150.049l-150.992 -151.011l-150.029 150.049z"/>
    <glyph glyph-name="uniFB7B" unicode="چ" horiz-adv-x="1703" arabic-form="final" d="M677.475 -228.214l-158.855 159.937l160.725 159.938l158.856 -159.002zM1030.7 -226.344l-158.856 159.002l160.726 160.872l158.856 -159.937zM855.955 -190.802l145.773 -145.907l-146.708 -146.843l-145.774 145.907zM1556 -580q-156 -112 -334 -174.5t-379 -62.5 q-166 0 -310 47.5t-248.5 137.5t-160.5 220.5t-46 297.5q6 112 54.5 209t128.5 177t185.5 142t226.5 104t252 63t261 19q-96 34 -173 73t-143 72.5t-124 55.5t-115 22q-41 0 -79 -13.5t-72 -37.5t-62 -56t-47 -69l-213 137q39 68 87.5 123t108 93.5t128.5 59t149 20.5 q62 0 121.5 -13t116.5 -36.5t113 -54.5t110 -67q85 -56 157 -94t136.5 -63.5t124.5 -41.5t120 -28l-79 -265l-188 -24q3 -36 21 -63t45 -45.5t61 -30t70.5 -18t72.5 -8.5t67 -2q26 0 49.5 -10.5t41 -28t28 -41t10.5 -50.5t-10.5 -50t-28 -40t-41 -26.5t-49.5 -9.5 q-135 0 -231.5 25t-163 63.5t-106.5 85t-61 90t-28 78.5t-6 51q-90 -15 -181 -39.5t-176 -58t-159 -75t-129.5 -92t-88.5 -109t-35 -125.5q-4 -110 40.5 -188.5t121 -129.5t176.5 -75t208 -24q142 0 272.5 46.5t252.5 136.5l150 -210v0z"/>
    <glyph glyph-name="uni0623" unicode="أ" horiz-adv-x="525" arabic-form="isolated" d="M395 1413q42 -296 44 -617q2 -515 -7 -780l-262 -39q22 409 10 711q-16 402 -42 644zM374 1920q-16 1 -33 3q-15 2 -33 3t-36 1q-29 0 -57 -9h1q-14 -6 -29 -16.5t-27.5 -23t-20.5 -27t-8 -28.5q0 -12 6 -30v1q6 -15 21 -27.5t34.5 -21.5t41 -14t40.5 -5q8 0 16.5 1 t16.5 4q27 9 53.5 22.5t48.5 27.5q26 16 49 33l77 -102q-48 -37 -109.5 -71.5t-146.5 -80.5l-240 -133l-62 113l167 93q-34 20 -61 50t-42 65q-15 36 -15 80q0 33 11 64t30 58.5t45 49t56 35.5q25 11 51 15.5t53 4.5q23 0 47.5 -3.5t44.5 -8.5q24 -5 46 -12z"/>
    <glyph glyph-name="uniFE84" unicode="أ" horiz-adv-x="673" arabic-form="final" d="M658 -30q-116 0 -199 28.5t-143 86.5q-36 36 -55.5 77.5t-28.5 81t-10.5 75t-1.5 61.5q1 32 2.5 106t1.5 179q0 94 -1 200t-4.5 209.5t-11.5 197t-22 163.5l251 75q11 -58 19 -134t13 -161.5t8 -175.5t3 -177q0 -26 0.5 -55t1 -57.5t0.5 -55.5v-49q0 -38 -0.5 -71.5 t-1 -64.5t-1 -61t-0.5 -61q-1 -38 2 -71.5t20 -49.5q36 -38 149 -39h9q26 0 49.5 -10.5t41 -28t28 -41t10.5 -49.5q0 -27 -10.5 -50.5t-28 -40.5t-41 -27t-49.5 -10zM390 1975q-16 1 -33 3q-15 2 -33 3t-36 1q-29 0 -57 -9h1q-14 -6 -29 -16.5t-27.5 -23t-20.5 -27t-8 -28.5 q0 -12 6 -30v1q6 -15 21 -27.5t34.5 -21.5t41 -14t40.5 -5q8 0 16.5 1t16.5 4q27 9 53.5 22.5t48.5 27.5q26 16 49 33l77 -102q-48 -37 -109.5 -71.5t-146.5 -80.5l-240 -133l-62 113l167 93q-34 20 -61 50t-42 65q-15 36 -15 80q0 33 11 64t30 58.5t45 49t56 35.5 q25 11 51 15.5t53 4.5q23 0 47.5 -3.5t44.5 -8.5q24 -5 46 -12z"/>
    <glyph glyph-name="uni0625" unicode="إ" horiz-adv-x="525" arabic-form="isolated" d="M375 1413q42 -296 44 -617q2 -515 -7 -780l-262 -39q22 409 10 711q-16 402 -42 644zM388 -232q-16 1 -33 3q-15 2 -33 3t-36 1q-29 0 -57 -9h1q-14 -6 -29 -16.5t-27.5 -23t-20.5 -27t-8 -28.5q0 -12 6 -30v1q6 -15 21 -27.5t34.5 -21.5t41 -14t40.5 -5q8 0 16.5 1 t16.5 4q27 9 53.5 22.5t48.5 27.5q26 16 49 33l77 -102q-48 -37 -109.5 -71.5t-146.5 -80.5l-240 -133l-62 113l167 93q-34 20 -61 50t-42 65q-15 36 -15 80q0 33 11 64t30 58.5t45 49t56 35.5q25 11 51 15.5t53 4.5q23 0 47.5 -3.5t44.5 -8.5q24 -5 46 -12z"/>
    <glyph glyph-name="uniFE88" unicode="إ" horiz-adv-x="673" arabic-form="final" d="M658 -30q-116 0 -199 28.5t-143 86.5q-36 36 -55.5 77.5t-28.5 81t-10.5 75t-1.5 61.5q1 32 2.5 106t1.5 179q0 94 -1 200t-4.5 209.5t-11.5 197t-22 163.5l251 75q11 -58 19 -134t13 -161.5t8 -175.5t3 -177q0 -26 0.5 -55t1 -57.5t0.5 -55.5v-49q0 -38 -0.5 -71.5 t-1 -64.5t-1 -61t-0.5 -61q-1 -38 2 -71.5t20 -49.5q36 -38 149 -39h9q26 0 49.5 -10.5t41 -28t28 -41t10.5 -49.5q0 -27 -10.5 -50.5t-28 -40.5t-41 -27t-49.5 -10zM504 -210q-16 1 -33 3q-15 2 -33 3t-36 1q-29 0 -57 -9h1q-14 -6 -29 -16.5t-27.5 -23t-20.5 -27t-8 -28.5 q0 -12 6 -30v1q6 -15 21 -27.5t34.5 -21.5t41 -14t40.5 -5q8 0 16.5 1t16.5 4q27 9 53.5 22.5t48.5 27.5q26 16 49 33l77 -102q-48 -37 -109.5 -71.5t-146.5 -80.5l-240 -133l-62 113l167 93q-34 20 -61 50t-42 65q-15 36 -15 80q0 33 11 64t30 58.5t45 49t56 35.5 q25 11 51 15.5t53 4.5q23 0 47.5 -3.5t44.5 -8.5q24 -5 46 -12z"/>
    <glyph glyph-name="uni0622" unicode="آ" horiz-adv-x="741" arabic-form="isolated" d="M468 1413q42 -296 44 -617q2 -515 -7 -780l-262 -39q22 409 10 711q-16 402 -42 644zM-52 1475q0 15 3 21q2 6 6.5 18.5t10.5 26.5t13 29.5t14 27.5q34 53 79.5 85.5t91.5 42.5q10 2 23.5 2.5t22.5 0.5q46 0 83 -11t69 -25h-1q26 -11 51.5 -24t54.5 -14q21 -1 43 13 t41.5 33.5t34 38t20.5 26.5l135 -87q-1 -3 -11 -17.5t-27.5 -35t-42.5 -44t-55.5 -43t-66.5 -32t-76 -11.5q-43 1 -79 11.5t-67 21.5l-16 6h1q-15 6 -28.5 13t-27 13t-27 9t-27.5 1q-27 -2 -42.5 -20.5t-24.5 -42t-13.5 -46.5t-8.5 -35z"/>
    <glyph glyph-name="uniFE82" unicode="آ" horiz-adv-x="684" arabic-form="final" d="M658 -30q-116 0 -199 28.5t-143 86.5q-36 36 -55.5 77.5t-28.5 81t-10.5 75t-1.5 61.5q1 32 2.5 106t1.5 179q0 94 -1 200t-4.5 209.5t-11.5 197t-22 163.5l251 75q11 -58 19 -134t13 -161.5t8 -175.5t3 -177q0 -26 0.5 -55t1 -57.5t0.5 -55.5v-49q0 -38 -0.5 -71.5 t-1 -64.5t-1 -61t-0.5 -61q-1 -38 2 -71.5t20 -49.5q36 -38 149 -39h9q26 0 49.5 -10.5t41 -28t28 -41t10.5 -49.5q0 -27 -10.5 -50.5t-28 -40.5t-41 -27t-49.5 -10zM-35 1596q0 15 3 21q2 6 6.5 18.5t10.5 26.5t13 29.5t14 27.5q34 53 79.5 85.5t91.5 42.5q10 2 23.5 2.5 t22.5 0.5q46 0 83 -11t69 -25h-1q26 -11 51.5 -24t54.5 -14q21 -1 43 13t41.5 33.5t34 38t20.5 26.5l135 -87q-1 -3 -11 -17.5t-27.5 -35t-42.5 -44t-55.5 -43t-66.5 -32t-76 -11.5q-43 1 -79 11.5t-67 21.5l-16 6h1q-15 6 -28.5 13t-27 13t-27 9t-27.5 1 q-27 -2 -42.5 -20.5t-24.5 -42t-13.5 -46.5t-8.5 -35z"/>
    <glyph glyph-name="uni0671" unicode="ٱ" horiz-adv-x="638" arabic-form="isolated" d="M391 1413q42 -296 44 -617q2 -515 -7 -780l-262 -39q22 409 10 711q-16 402 -42 644zM512 1672q19 16 20 39q1 14 -9 25q-20 21 -59 21q-12 0 -25 -2v0q-50 -10 -92 -45l-6 -6q-42 -41 -63 -73q20 -1 40 -1q39 0 78 5q82 10 116 37zM622 1758q7 -22 7 -45q-2 -52 -23 -86 q-24 -39 -69 -65q-78 -45 -208 -47h-11q-37 0 -84 4q-25 2 -45 9q-28 10 -46 26q-10 9 -20 21q-7 8 -15 19q-4 5 -16 5q-8 0 -18 -2q-20 -6 -43 -22q-17 -11 -39 -31l-9 -8l-36 108q-3 8 29 23q8 3 18 8q4 1 7 3q3 1 4 1q17 7 31 12q18 6 33 10q13 3 25 3q22 0 46 -10 q16 -7 39 -22q102 176 238 195q20 5 41 5q52 0 95 -28q43 -27 64 -73l2 -5q3 -7 3 -8z"/>
    <glyph glyph-name="uniFB51" unicode="ٱ" horiz-adv-x="678" arabic-form="final" d="M658 -30q-116 0 -199 28.5t-143 86.5q-36 36 -55.5 77.5t-28.5 81t-10.5 75t-1.5 61.5q1 32 2.5 106t1.5 179q0 94 -1 200t-4.5 209.5t-11.5 197t-22 163.5l251 75q11 -58 19 -134t13 -161.5t8 -175.5t3 -177q0 -26 0.5 -55t1 -57.5t0.5 -55.5v-49q0 -38 -0.5 -71.5 t-1 -64.5t-1 -61t-0.5 -61q-1 -38 2 -71.5t20 -49.5q36 -38 149 -39h9q26 0 49.5 -10.5t41 -28t28 -41t10.5 -49.5q0 -27 -10.5 -50.5t-28 -40.5t-41 -27t-49.5 -10zM541 1806q19 16 20 39q1 14 -9 25q-20 21 -59 21q-12 0 -25 -2v0q-50 -10 -92 -45l-6 -6q-42 -41 -63 -73 q20 -1 40 -1q39 0 78 5q82 10 116 37zM651 1892q7 -22 7 -45q-2 -52 -23 -86q-24 -39 -69 -65q-78 -45 -208 -47h-11q-37 0 -84 4q-25 2 -45 9q-28 10 -46 26q-10 9 -20 21q-7 8 -15 19q-4 5 -16 5q-8 0 -18 -2q-20 -6 -43 -22q-17 -11 -39 -31l-9 -8l-36 108q-3 8 29 23 q8 3 18 8q4 1 7 3q3 1 4 1q17 7 31 12q18 6 33 10q13 3 25 3q22 0 46 -10q16 -7 39 -22q102 176 238 195q20 5 41 5q52 0 95 -28q43 -27 64 -73l2 -5q3 -7 3 -8z"/>
    <glyph glyph-name="uni0628" unicode="ب" horiz-adv-x="1975" arabic-form="isolated" d="M998 -30q-184 2 -330 23t-256 62q-218 85 -296 244v-1q-45 87 -45 192q0 49 10.5 101.5t30.5 105.5q11 28 21 50.5t20.5 42.5t22.5 40t26 45l186 -156q-17 -23 -38.5 -63t-38 -85t-23 -87.5t7.5 -70.5q22 -45 84 -79.5t154 -57.5t210.5 -35.5t253.5 -12.5q75 0 169.5 5 t194.5 19t198 38.5t179 64.5q-12 58 -33 112t-46.5 106t-54.5 102.5t-59 101.5l214 139q3 0 18.5 -30t38 -77.5t47.5 -108.5t46 -122.5t35 -119.5t14 -100q0 -61 -28 -108t-100 -92q-46 -28 -107.5 -53.5t-132 -46.5t-147 -38t-154 -28t-152 -17t-140.5 -5zM1202 -361 l-191 -191l-192 192l191 191z"/>
    <glyph glyph-name="uniFE91" unicode="ب" horiz-adv-x="664" arabic-form="initial" d="M-135 98q0 27 10 50.5t27.5 40.5t40.5 27t50 10h103h45q42 0 83 3.5t77 14.5t63.5 31t42.5 52q11 22 11 66q0 26 -10.5 73t-29 104t-43 118t-51.5 114l231 114q25 -57 50 -121t44.5 -131.5t31.5 -135.5t12 -133q0 -97 -33 -173q-38 -88 -107 -144.5t-164 -84.5 q-57 -16 -110.5 -19.5t-99.5 -3.5h-137h-9q-27 0 -50 10t-40.5 27t-27.5 40.5t-10 50.5zM485 -376l-191 -191l-192 192l191 191z"/>
    <glyph glyph-name="uniFE92" unicode="ب" horiz-adv-x="718" arabic-form="medial" d="M-128 98q0 27 10 50t27 40.5t40.5 27.5t50.5 10h17q153 0 232 52.5t79 157.5q0 28 -4 52.5t-11.5 52t-18 60.5t-22.5 77l246 69q18 -71 33.5 -148.5t15.5 -162.5q0 -34 5.5 -71t21 -68t42 -51t68.5 -20q26 0 49.5 -10t41 -27.5t28 -40.5t10.5 -50t-10.5 -50.5t-28 -40.5 t-40.5 -27t-49 -10q-97 0 -164.5 30.5t-113.5 80.5q-135 -111 -410 -111h-17q-27 0 -50.5 10t-40.5 27t-27 40.5t-10 50.5zM580 -361l-191 -191l-192 192l191 191z"/>
    <glyph glyph-name="uniFE90" unicode="ب" horiz-adv-x="2245" arabic-form="final" d="M2228 -30q-83 0 -152 14t-126 44.5t-101.5 78t-77.5 114.5q-275 -254 -823 -254q-311 2 -516.5 78t-302.5 232q-38 64 -54.5 133t-16.5 135q0 81 20 156v-1q12 49 25 85.5t24 61.5t19 39t11 19l193 -121q-10 -18 -23 -39t-24.5 -49t-19.5 -66t-8 -89q0 -35 13 -71.5 t33 -68.5q28 -47 85 -80t138.5 -54t183.5 -31t220 -10q107 0 203 8t178.5 25.5t149 45t115.5 67.5q44 34 71 79t45 94.5t30 101.5t26 100l230 -62q-13 -54 -27.5 -107.5t-13.5 -110.5v1q3 -55 19 -100t49.5 -76.5t85.5 -48.5t127 -17q27 0 50.5 -10t41 -27t27.5 -40.5 t10 -50.5t-10 -50.5t-27.5 -40.5t-41 -27t-50.5 -10h-8v0zM1182 -362l-191 -191l-192 192l191 191z"/>
    <glyph glyph-name="uni067E" unicode="پ" horiz-adv-x="1964" arabic-form="isolated" d="M991 -30q-184 2 -330 23t-256 62q-218 85 -296 244v-1q-45 87 -45 192q0 49 10.5 101.5t30.5 105.5q11 28 21 50.5t20.5 42.5t22.5 40t26 45l186 -156q-17 -23 -38.5 -63t-38 -85t-23 -87.5t7.5 -70.5q22 -45 84 -79.5t154 -57.5t210.5 -35.5t253.5 -12.5q75 0 169.5 5 t194.5 19t198 38.5t179 64.5q-12 58 -33 112t-46.5 106t-54.5 102.5t-59 101.5l214 139q3 0 18.5 -30t38 -77.5t47.5 -108.5t46 -122.5t35 -119.5t14 -100q0 -61 -28 -108t-100 -92q-46 -28 -107.5 -53.5t-132 -46.5t-147 -38t-154 -28t-152 -17t-140.5 -5zM818 -489 l-170 171l172 171l170 -170zM1196 -487l-170 170l172 172l170 -171zM1009 -449l156 -156l-157 -157l-156 156z"/>
    <glyph glyph-name="uniFB57" unicode="پ" horiz-adv-x="2247" arabic-form="final" d="M2228 -30q-83 0 -152 14t-126 44.5t-101.5 78t-77.5 114.5q-275 -254 -823 -254q-311 2 -516.5 78t-302.5 232q-38 64 -54.5 133t-16.5 135q0 81 20 156v-1q12 49 25 85.5t24 61.5t19 39t11 19l193 -121q-10 -18 -23 -39t-24.5 -49t-19.5 -66t-8 -89q0 -35 13 -71.5 t33 -68.5q28 -47 85 -80t138.5 -54t183.5 -31t220 -10q107 0 203 8t178.5 25.5t149 45t115.5 67.5q44 34 71 79t45 94.5t30 101.5t26 100l230 -62q-13 -54 -27.5 -107.5t-13.5 -110.5v1q3 -55 19 -100t49.5 -76.5t85.5 -48.5t127 -17q27 0 50.5 -10t41 -27t27.5 -40.5 t10 -50.5t-10 -50.5t-27.5 -40.5t-41 -27t-50.5 -10h-8v0zM828 -478l-170 171l172 171l170 -170zM1206 -476l-170 170l172 172l170 -171zM1019 -438l156 -156l-157 -157l-156 156z"/>
    <glyph glyph-name="uniFB58" unicode="پ" horiz-adv-x="859" arabic-form="initial" d="M-128 98q0 27 10 50.5t27.5 40.5t40.5 27t50 10h111h48q49 0 104 3.5t105.5 14t91.5 29t61 47.5q15 22 15.5 59t-10 81t-28 92.5t-37.5 94t-39.5 86t-32.5 68.5l233 115q27 -48 53.5 -115.5t46.5 -139.5t32.5 -142t12.5 -124q0 -97 -33 -173q-38 -88 -107 -144.5 t-164 -84.5q-29 -8 -72.5 -12.5t-88.5 -7t-85.5 -3t-62.5 -0.5h-145h-9q-27 0 -50 10t-40.5 27t-27.5 40.5t-10 50.5zM182 -529l-170 171l172 171l170 -170zM560 -527l-170 170l172 172l170 -171zM373 -489l156 -156l-157 -157l-156 156z"/>
    <glyph glyph-name="uniFB59" unicode="پ" horiz-adv-x="859" arabic-form="medial" d="M-135 98q0 27 10 50.5t27 40.5t40.5 27t50.5 10h76q78 0 149.5 7t127 29.5t89 64t36.5 109.5q1 27 -2 53t-9.5 55.5t-16.5 64.5t-23 81l245 69q13 -48 21 -87.5t13 -76t8.5 -74.5t7.5 -84q3 -34 9 -71.5t20.5 -68.5t40 -51t67.5 -20q27 0 50.5 -10t41 -27t27.5 -40.5 t10 -50.5t-10.5 -50.5t-28 -40.5t-40.5 -27t-49 -10q-98 0 -165.5 32t-113.5 83q-42 -32 -99.5 -54t-124.5 -35.5t-139 -19.5t-142 -6h-76q-27 0 -50.5 10t-40.5 27t-27 40.5t-10 50.5zM173 -483l-170 171l172 171l170 -170zM551 -481l-170 170l172 172l170 -171zM364 -443 l156 -156l-157 -157l-156 156z"/>
    <glyph glyph-name="uni062A" unicode="ت" horiz-adv-x="1948" arabic-form="isolated" d="M978 -30q-184 2 -330 23t-256 62q-218 85 -296 244v-1q-45 87 -45 192q0 49 10.5 101.5t30.5 105.5q11 28 21 50.5t20.5 42.5t22.5 40t26 45l186 -156q-17 -23 -38.5 -63t-38 -85t-23 -87.5t7.5 -70.5q22 -45 84 -79.5t154 -57.5t210.5 -35.5t253.5 -12.5q75 0 169.5 5 t194.5 19t198 38.5t179 64.5q-12 58 -33 112t-46.5 106t-54.5 102.5t-59 101.5l214 139q3 0 18.5 -30t38 -77.5t47.5 -108.5t46 -122.5t35 -119.5t14 -100q0 -61 -28 -108t-100 -92q-46 -28 -107.5 -53.5t-132 -46.5t-147 -38t-154 -28t-152 -17t-140.5 -5zM989 989 l-170 -170l-172 171l170 171zM1367 988l-170 -171l-172 172l170 170z"/>
    <glyph glyph-name="uniFE97" unicode="ت" horiz-adv-x="788" arabic-form="initial" d="M406 1246l-170 -170l-172 171l170 171zM784 1245l-170 -171l-172 172l170 170zM-165 98q0 27 10 50.5t27.5 40.5t40.5 27t50 10h111h48q49 0 104 3.5t105.5 14t91.5 29t61 47.5q15 22 15.5 59t-10 81t-28 92.5t-37.5 94t-39.5 86t-32.5 68.5l233 115q27 -48 53.5 -115.5 t46.5 -139.5t32.5 -142t12.5 -124q0 -97 -33 -173q-38 -88 -107 -144.5t-164 -84.5q-29 -8 -72.5 -12.5t-88.5 -7t-85.5 -3t-62.5 -0.5h-145h-9q-27 0 -50 10t-40.5 27t-27.5 40.5t-10 50.5z"/>
    <glyph glyph-name="uniFE98" unicode="ت" horiz-adv-x="870" arabic-form="medial" d="M-135 98q0 27 10 50.5t27 40.5t40.5 27t50.5 10h76q78 0 149.5 7t127 29.5t89 64t36.5 109.5q1 27 -2 53t-9.5 55.5t-16.5 64.5t-23 81l245 69q13 -48 21 -87.5t13 -76t8.5 -74.5t7.5 -84q3 -34 9 -71.5t20.5 -68.5t40 -51t67.5 -20q27 0 50.5 -10t41 -27t27.5 -40.5 t10 -50.5t-10.5 -50.5t-28 -40.5t-40.5 -27t-49 -10q-98 0 -165.5 32t-113.5 83q-42 -32 -99.5 -54t-124.5 -35.5t-139 -19.5t-142 -6h-76q-27 0 -50.5 10t-40.5 27t-27 40.5t-10 50.5zM427 1088l-170 -170l-172 171l170 171zM805 1087l-170 -171l-172 172l170 170z"/>
    <glyph glyph-name="uniFE96" unicode="ت" horiz-adv-x="2253" arabic-form="final" d="M2228 -30q-83 0 -152 14t-126 44.5t-101.5 78t-77.5 114.5q-275 -254 -823 -254q-311 2 -516.5 78t-302.5 232q-38 64 -54.5 133t-16.5 135q0 81 20 156v-1q12 49 25 85.5t24 61.5t19 39t11 19l193 -121q-10 -18 -23 -39t-24.5 -49t-19.5 -66t-8 -89q0 -35 13 -71.5 t33 -68.5q28 -47 85 -80t138.5 -54t183.5 -31t220 -10q107 0 203 8t178.5 25.5t149 45t115.5 67.5q44 34 71 79t45 94.5t30 101.5t26 100l230 -62q-13 -54 -27.5 -107.5t-13.5 -110.5v1q3 -55 19 -100t49.5 -76.5t85.5 -48.5t127 -17q27 0 50.5 -10t41 -27t27.5 -40.5 t10 -50.5t-10 -50.5t-27.5 -40.5t-41 -27t-50.5 -10h-8v0zM1010 984l-170 -170l-172 171l170 171zM1388 983l-170 -171l-172 172l170 170z"/>
    <glyph glyph-name="uni062B" unicode="ث" horiz-adv-x="1964" arabic-form="isolated" d="M985 -30q-184 2 -330 23t-256 62q-218 85 -296 244v-1q-45 87 -45 192q0 49 10.5 101.5t30.5 105.5q11 28 21 50.5t20.5 42.5t22.5 40t26 45l186 -156q-17 -23 -38.5 -63t-38 -85t-23 -87.5t7.5 -70.5q22 -45 84 -79.5t154 -57.5t210.5 -35.5t253.5 -12.5q75 0 169.5 5 t194.5 19t198 38.5t179 64.5q-12 58 -33 112t-46.5 106t-54.5 102.5t-59 101.5l214 139q3 0 18.5 -30t38 -77.5t47.5 -108.5t46 -122.5t35 -119.5t14 -100q0 -61 -28 -108t-100 -92q-46 -28 -107.5 -53.5t-132 -46.5t-147 -38t-154 -28t-152 -17t-140.5 -5zM989 970 l-170 -170l-172 171l170 171zM1367 969l-170 -171l-172 172l170 170zM851 1259l156 156l157 -157l-156 -156z"/>
    <glyph glyph-name="uniFE9B" unicode="ث" horiz-adv-x="799" arabic-form="initial" d="M441 1244l-170 -170l-172 171l170 171zM819 1243l-170 -171l-172 172l170 170zM303 1533l156 156l157 -157l-156 -156zM-128 98q0 27 10 50.5t27.5 40.5t40.5 27t50 10h111h48q49 0 104 3.5t105.5 14t91.5 29t61 47.5q15 22 15.5 59t-10 81t-28 92.5t-37.5 94t-39.5 86 t-32.5 68.5l233 115q27 -48 53.5 -115.5t46.5 -139.5t32.5 -142t12.5 -124q0 -97 -33 -173q-38 -88 -107 -144.5t-164 -84.5q-29 -8 -72.5 -12.5t-88.5 -7t-85.5 -3t-62.5 -0.5h-145h-9q-27 0 -50 10t-40.5 27t-27.5 40.5t-10 50.5z"/>
    <glyph glyph-name="uniFE9C" unicode="ث" horiz-adv-x="864" arabic-form="medial" d="M-135 98q0 27 10 50.5t27 40.5t40.5 27t50.5 10h76q78 0 149.5 7t127 29.5t89 64t36.5 109.5q1 27 -2 53t-9.5 55.5t-16.5 64.5t-23 81l245 69q13 -48 21 -87.5t13 -76t8.5 -74.5t7.5 -84q3 -34 9 -71.5t20.5 -68.5t40 -51t67.5 -20q27 0 50.5 -10t41 -27t27.5 -40.5 t10 -50.5t-10.5 -50.5t-28 -40.5t-40.5 -27t-49 -10q-98 0 -165.5 32t-113.5 83q-42 -32 -99.5 -54t-124.5 -35.5t-139 -19.5t-142 -6h-76q-27 0 -50.5 10t-40.5 27t-27 40.5t-10 50.5zM402 1094l-170 -170l-172 171l170 171zM780 1093l-170 -171l-172 172l170 170z M264 1383l156 156l157 -157l-156 -156z"/>
    <glyph glyph-name="uniFE9A" unicode="ث" horiz-adv-x="2233" arabic-form="final" d="M2228 -30q-83 0 -152 14t-126 44.5t-101.5 78t-77.5 114.5q-275 -254 -823 -254q-311 2 -516.5 78t-302.5 232q-38 64 -54.5 133t-16.5 135q0 81 20 156v-1q12 49 25 85.5t24 61.5t19 39t11 19l193 -121q-10 -18 -23 -39t-24.5 -49t-19.5 -66t-8 -89q0 -35 13 -71.5 t33 -68.5q28 -47 85 -80t138.5 -54t183.5 -31t220 -10q107 0 203 8t178.5 25.5t149 45t115.5 67.5q44 34 71 79t45 94.5t30 101.5t26 100l230 -62q-13 -54 -27.5 -107.5t-13.5 -110.5v1q3 -55 19 -100t49.5 -76.5t85.5 -48.5t127 -17q27 0 50.5 -10t41 -27t27.5 -40.5 t10 -50.5t-10 -50.5t-27.5 -40.5t-41 -27t-50.5 -10h-8v0zM1037 970l-170 -170l-172 171l170 171zM1415 969l-170 -171l-172 172l170 170zM899 1259l156 156l157 -157l-156 -156z"/>
    <glyph glyph-name="uni0679" unicode="ٹ" horiz-adv-x="1970" arabic-form="isolated" d="M992 -30q-184 2 -330 23t-256 62q-218 85 -296 244v-1q-45 87 -45 192q0 49 10.5 101.5t30.5 105.5q11 28 21 50.5t20.5 42.5t22.5 40t26 45l186 -156q-17 -23 -38.5 -63t-38 -85t-23 -87.5t7.5 -70.5q22 -45 84 -79.5t154 -57.5t210.5 -35.5t253.5 -12.5q75 0 169.5 5 t194.5 19t198 38.5t179 64.5q-12 58 -33 112t-46.5 106t-54.5 102.5t-59 101.5l214 139q3 0 18.5 -30t38 -77.5t47.5 -108.5t46 -122.5t35 -119.5t14 -100q0 -61 -28 -108t-100 -92q-46 -28 -107.5 -53.5t-132 -46.5t-147 -38t-154 -28t-152 -17t-140.5 -5zM982 821 q-15 0 -29.5 0.5t-28.5 1.5q-132 6 -290 67l43 107q35 -14 62 -23t51 -15q12 15 22.5 31.5t22.5 33.5l1 1q5 37 8.5 67t3.5 59q0 26 -2 56t-5 69q-4 46 -8 86.5t-8 69.5q-4 34 -9 63l116 32q8 -93 19 -184t12 -188q92 79 180 94q33 5 70 -3t68.5 -27.5t53 -49.5t25.5 -69 q2 -24 -3.5 -48.5t-15.5 -46.5t-22.5 -41.5t-25.5 -32.5q-40 -36 -81 -57.5t-80.5 -33t-77.5 -15.5t-72 -4zM899 938q23 -1 38 -1h29q26 0 62 3t74 11.5t74.5 23.5t63.5 39q14 14 22.5 31.5t8.5 31.5q0 13 -10 25.5t-25.5 20.5t-35.5 11.5t-39 0.5t-45 -14.5t-55 -29.5 t-58.5 -42t-55.5 -52q-9 -11 -19 -22t-18 -22z"/>
    <glyph glyph-name="uniFB68" unicode="ٹ" horiz-adv-x="774" arabic-form="initial" d="M-133 98q0 27 10 50.5t27.5 40.5t40.5 27t50 10h103h45q42 0 83 3.5t77 14.5t63.5 31t42.5 52q11 22 11 66q0 26 -10.5 73t-29 104t-43 118t-51.5 114l231 114q25 -57 50 -121t44.5 -131.5t31.5 -135.5t12 -133q0 -97 -33 -173q-38 -88 -107 -144.5t-164 -84.5 q-57 -16 -110.5 -19.5t-99.5 -3.5h-137h-9q-27 0 -50 10t-40.5 27t-27.5 40.5t-10 50.5zM333 1080q-15 0 -29.5 0.5t-28.5 1.5q-132 6 -290 67l43 107q35 -14 62 -23t51 -15q12 15 22.5 31.5t22.5 33.5l1 1q5 37 8.5 67t3.5 59q0 26 -2 56t-5 69q-4 46 -8 86.5t-8 69.5 q-4 34 -9 63l116 32q8 -93 19 -184t12 -188q92 79 180 94q33 5 70 -3t68.5 -27.5t53 -49.5t25.5 -69q2 -24 -3.5 -48.5t-15.5 -46.5t-22.5 -41.5t-25.5 -32.5q-40 -36 -81 -57.5t-80.5 -33t-77.5 -15.5t-72 -4zM250 1197q23 -1 38 -1h29q26 0 62 3t74 11.5t74.5 23.5 t63.5 39q14 14 22.5 31.5t8.5 31.5q0 13 -10 25.5t-25.5 20.5t-35.5 11.5t-39 0.5t-45 -14.5t-55 -29.5t-58.5 -42t-55.5 -52q-9 -11 -19 -22t-18 -22z"/>
    <glyph glyph-name="uniFB69" unicode="ٹ" horiz-adv-x="859" arabic-form="medial" d="M-135 98q0 27 10 50.5t27 40.5t40.5 27t50.5 10h76q78 0 149.5 7t127 29.5t89 64t36.5 109.5q1 27 -2 53t-9.5 55.5t-16.5 64.5t-23 81l245 69q13 -48 21 -87.5t13 -76t8.5 -74.5t7.5 -84q3 -34 9 -71.5t20.5 -68.5t40 -51t67.5 -20q27 0 50.5 -10t41 -27t27.5 -40.5 t10 -50.5t-10.5 -50.5t-28 -40.5t-40.5 -27t-49 -10q-98 0 -165.5 32t-113.5 83q-42 -32 -99.5 -54t-124.5 -35.5t-139 -19.5t-142 -6h-76q-27 0 -50.5 10t-40.5 27t-27 40.5t-10 50.5zM394 970q-15 0 -29.5 0.5t-28.5 1.5q-132 6 -290 67l43 107q35 -14 62 -23t51 -15 q12 15 22.5 31.5t22.5 33.5l1 1q5 37 8.5 67t3.5 59q0 26 -2 56t-5 69q-4 46 -8 86.5t-8 69.5q-4 34 -9 63l116 32q8 -93 19 -184t12 -188q92 79 180 94q33 5 70 -3t68.5 -27.5t53 -49.5t25.5 -69q2 -24 -3.5 -48.5t-15.5 -46.5t-22.5 -41.5t-25.5 -32.5q-40 -36 -81 -57.5 t-80.5 -33t-77.5 -15.5t-72 -4zM311 1087q23 -1 38 -1h29q26 0 62 3t74 11.5t74.5 23.5t63.5 39q14 14 22.5 31.5t8.5 31.5q0 13 -10 25.5t-25.5 20.5t-35.5 11.5t-39 0.5t-45 -14.5t-55 -29.5t-58.5 -42t-55.5 -52q-9 -11 -19 -22t-18 -22z"/>
    <glyph glyph-name="uniFB67" unicode="ٹ" horiz-adv-x="2236" arabic-form="final" d="M2228 -30q-83 0 -152 14t-126 44.5t-101.5 78t-77.5 114.5q-275 -254 -823 -254q-311 2 -516.5 78t-302.5 232q-38 64 -54.5 133t-16.5 135q0 81 20 156v-1q12 49 25 85.5t24 61.5t19 39t11 19l193 -121q-10 -18 -23 -39t-24.5 -49t-19.5 -66t-8 -89q0 -35 13 -71.5 t33 -68.5q28 -47 85 -80t138.5 -54t183.5 -31t220 -10q107 0 203 8t178.5 25.5t149 45t115.5 67.5q44 34 71 79t45 94.5t30 101.5t26 100l230 -62q-13 -54 -27.5 -107.5t-13.5 -110.5v1q3 -55 19 -100t49.5 -76.5t85.5 -48.5t127 -17q27 0 50.5 -10t41 -27t27.5 -40.5 t10 -50.5t-10 -50.5t-27.5 -40.5t-41 -27t-50.5 -10h-8v0zM1056 821q-15 0 -29.5 0.5t-28.5 1.5q-132 6 -290 67l43 107q35 -14 62 -23t51 -15q12 15 22.5 31.5t22.5 33.5l1 1q5 37 8.5 67t3.5 59q0 26 -2 56t-5 69q-4 46 -8 86.5t-8 69.5q-4 34 -9 63l116 32q8 -93 19 -184 t12 -188q92 79 180 94q33 5 70 -3t68.5 -27.5t53 -49.5t25.5 -69q2 -24 -3.5 -48.5t-15.5 -46.5t-22.5 -41.5t-25.5 -32.5q-40 -36 -81 -57.5t-80.5 -33t-77.5 -15.5t-72 -4zM973 938q23 -1 38 -1h29q26 0 62 3t74 11.5t74.5 23.5t63.5 39q14 14 22.5 31.5t8.5 31.5 q0 13 -10 25.5t-25.5 20.5t-35.5 11.5t-39 0.5t-45 -14.5t-55 -29.5t-58.5 -42t-55.5 -52q-9 -11 -19 -22t-18 -22z"/>
    <glyph glyph-name="uni0629" unicode="ة" horiz-adv-x="1020" arabic-form="isolated" d="M522 -30q-5 0 -26 1t-51.5 6t-69 15t-77.5 29q-104 48 -158 131t-54 195q0 190 170 396q29 34 52.5 58.5t43.5 44.5q-14 11 -26 21t-20 18l-18 15l162 198q40 -31 104 -89t155 -157q251 -286 251 -505q0 -109 -52.5 -193t-143.5 -132q-33 -16 -68 -26t-67 -16t-60 -8 t-47 -2zM735 347q0 28 -19 71t-51 92t-73.5 99t-86.5 93q-29 -29 -62 -73t-61.5 -93.5t-47.5 -99t-19 -89.5q0 -33 21.5 -55.5t53.5 -36.5t67.5 -20t64.5 -6q35 0 73 5t69 18.5t51 36.5t20 58zM445 1360l-170 -170l-172 171l170 171zM823 1359l-170 -171l-172 172l170 170z "/>
    <glyph glyph-name="uniFE94" unicode="ة" horiz-adv-x="1126" arabic-form="final" d="M581 110q-134 0 -230 35.5t-152 100.5q-32 41 -46 88.5t-14 90.5q0 38 6.5 69t15.5 53q40 84 100.5 146.5t125.5 108t128 75.5t109 48q-5 38 -7.5 76t-5.5 76l253 54q1 -9 4 -39.5t7.5 -72.5t9.5 -89.5t9 -89t7.5 -72t4.5 -37.5q15 -128 27.5 -209t22 -128t15.5 -67 t9 -26q10 -22 22.5 -36.5t30 -23t41 -12t53.5 -3.5q26 0 49.5 -10t41 -27t28 -40.5t10.5 -50.5t-10.5 -50t-28 -40.5t-41 -27.5t-49.5 -10q-41 0 -96.5 7t-111.5 33q-40 19 -72.5 46.5t-60.5 69.5q-56 -8 -107 -12t-98 -4zM697 373q-5 27 -10 64t-10 80.5t-10.5 90.5 t-11.5 94q-26 -11 -58 -28t-66 -38.5t-66.5 -45.5t-57.5 -49.5t-40.5 -51.5t-15.5 -50q0 -22 22 -36.5t55.5 -23t73 -12t73.5 -3.5q32 0 64 2.5t58 6.5zM611 1426l-170 -170l-172 171l170 171zM989 1425l-170 -171l-172 172l170 170z"/>
    <glyph glyph-name="uniFB7C" unicode="چ" horiz-adv-x="1559" arabic-form="initial" d="M-131 98q0 27 10 50.5t28 40.5t41.5 27t50.5 10h198q124 0 252.5 23.5t255.5 62t248 88.5t229 103q-86 19 -160 50.5t-140 61.5t-127 52t-121 22q-35 0 -65.5 -12.5t-56.5 -31.5t-46.5 -42t-36 -44.5t-25.5 -38.5t-14 -24l-208 135q34 60 81 116.5t104.5 101t124.5 71 t142 26.5q77 0 153 -20.5t150.5 -51.5t149.5 -67.5t151.5 -68t154.5 -53t160 -22.5l-21 -258q-140 -67 -292 -142t-318 -139t-347 -107t-378 -47h-190h-8q-27 0 -50.5 10t-41.5 27.5t-28 40.5t-10 50zM561 -472l-170 171l172 171l170 -170zM939 -470l-170 170l172 172 l170 -171zM752 -432l156 -156l-157 -157l-156 156z"/>
    <glyph glyph-name="uniFB7D" unicode="چ" horiz-adv-x="1663" arabic-form="medial" d="M-129 97q0 26 10 49.5t27.5 41t41 28t50.5 10.5h183q123 0 248 24.5t246 64.5t235 89t215 99q-41 5 -85.5 21t-91.5 36.5t-96 43t-98 41.5t-98.5 31t-96.5 12q-37 0 -70.5 -13.5t-63 -34t-53 -44.5t-40 -44.5t-26 -34.5l-9.5 -14l-200 109q35 66 89 126.5t116.5 107 t129 74t127.5 27.5q51 0 102.5 -11.5t104 -30t106.5 -43t109 -49.5q58 -28 127 -55.5t142 -49t146.5 -35t140.5 -13.5l-43 -244q-38 -16 -73 -34.5t-72 -35.5q20 -42 61 -66t86.5 -36t88 -15t66.5 -3h14q27 0 50.5 -10.5t41 -28t27.5 -41t10 -49.5q0 -27 -10 -50 t-27.5 -40.5t-41 -27t-50.5 -9.5h-14q-98 0 -182 17.5t-152.5 51t-119 82t-80.5 110.5q-101 -50 -209 -97t-224 -83.5t-241.5 -59t-261.5 -22.5l-183 1q-27 0 -50.5 9.5t-41 27t-27.5 40.5t-10 50zM560 -478l-170 171l172 171l170 -170zM938 -476l-170 170l172 172l170 -171 zM751 -438l156 -156l-157 -157l-156 156z"/>
    <glyph glyph-name="uni062C" unicode="ج" horiz-adv-x="1734" arabic-form="isolated" d="M1543 -563q-156 -112 -334 -174.5t-379 -62.5q-166 0 -310 47.5t-248.5 137.5t-160.5 220.5t-46 297.5q7 112 55 209t128 177t185.5 142t226.5 104t252 63t261 19q-87 33 -163 72t-144 72.5t-129.5 56t-118.5 22.5q-41 0 -84 -19.5t-82 -50t-72 -68t-52 -74.5l-213 137 q39 68 86 127t108 103.5t137 71t172 30.5q62 0 121.5 -13t116.5 -36.5t113 -54.5t110 -67q85 -56 154 -94t130.5 -63.5t118.5 -41.5t117 -28l-79 -294q-2 0 -23.5 -1.5t-59.5 0.5q-70 4 -154.5 -1t-175.5 -20t-183.5 -39t-179 -57t-162.5 -75t-133 -93t-91 -110.5 t-36 -127.5q-4 -110 40.5 -188.5t121 -129.5t176.5 -75t208 -24q142 0 272.5 46.5t252.5 136.5l150 -210v0zM1050 -69l-191 -191l-192 192l191 191z"/>
    <glyph glyph-name="uniFE9F" unicode="ج" horiz-adv-x="1548" arabic-form="initial" d="M-131 98q0 27 10 50.5t28 40.5t41.5 27t50.5 10h198q124 0 252.5 23.5t255.5 62t248 88.5t229 103q-86 19 -160 50.5t-140 61.5t-127 52t-121 22q-35 0 -65.5 -12.5t-56.5 -31.5t-46.5 -42t-36 -44.5t-25.5 -38.5t-14 -24l-208 135q34 60 81 116.5t104.5 101t124.5 71 t142 26.5q77 0 153 -20.5t150.5 -51.5t149.5 -67.5t151.5 -68t154.5 -53t160 -22.5l-21 -258q-140 -67 -292 -142t-318 -139t-347 -107t-378 -47h-190h-8q-27 0 -50.5 10t-41.5 27.5t-28 40.5t-10 50zM956 -365l-191 -191l-192 192l191 191z"/>
    <glyph glyph-name="uniFEA0" unicode="ج" horiz-adv-x="1663" arabic-form="medial" d="M-129 97q0 26 10 49.5t27.5 41t41 28t50.5 10.5h183q123 0 248 24.5t246 64.5t235 89t215 99q-41 5 -85.5 21t-91.5 36.5t-96 43t-98 41.5t-98.5 31t-96.5 12q-37 0 -70.5 -13.5t-63 -34t-53 -44.5t-40 -44.5t-26 -34.5l-9.5 -14l-200 109q35 66 89 126.5t116.5 107 t129 74t127.5 27.5q51 0 102.5 -11.5t104 -30t106.5 -43t109 -49.5q58 -28 127 -55.5t142 -49t146.5 -35t140.5 -13.5l-43 -244q-38 -16 -73 -34.5t-72 -35.5q20 -42 61 -66t86.5 -36t88 -15t66.5 -3h14q27 0 50.5 -10.5t41 -28t27.5 -41t10 -49.5q0 -27 -10 -50 t-27.5 -40.5t-41 -27t-50.5 -9.5h-14q-98 0 -182 17.5t-152.5 51t-119 82t-80.5 110.5q-101 -50 -209 -97t-224 -83.5t-241.5 -59t-261.5 -22.5l-183 1q-27 0 -50.5 9.5t-41 27t-27.5 40.5t-10 50zM980 -363l-191 -191l-192 192l191 191z"/>
    <glyph glyph-name="uniFE9E" unicode="ج" horiz-adv-x="1696" arabic-form="final" d="M1556 -580q-156 -112 -334 -174.5t-379 -62.5q-166 0 -310 47.5t-248.5 137.5t-160.5 220.5t-46 297.5q6 112 54.5 209t128.5 177t185.5 142t226.5 104t252 63t261 19q-96 34 -173 73t-143 72.5t-124 55.5t-115 22q-41 0 -79 -13.5t-72 -37.5t-62 -56t-47 -69l-213 137 q39 68 87.5 123t108 93.5t128.5 59t149 20.5q62 0 121.5 -13t116.5 -36.5t113 -54.5t110 -67q85 -56 157 -94t136.5 -63.5t124.5 -41.5t120 -28l-79 -265l-188 -24q3 -36 21 -63t45 -45.5t61 -30t70.5 -18t72.5 -8.5t67 -2q26 0 49.5 -10.5t41 -28t28 -41t10.5 -50.5 t-10.5 -50t-28 -40t-41 -26.5t-49.5 -9.5q-135 0 -231.5 25t-163 63.5t-106.5 85t-61 90t-28 78.5t-6 51q-90 -15 -181 -39.5t-176 -58t-159 -75t-129.5 -92t-88.5 -109t-35 -125.5q-4 -110 40.5 -188.5t121 -129.5t176.5 -75t208 -24q142 0 272.5 46.5t252.5 136.5 l150 -210v0zM1090 -122l-191 -191l-192 192l191 191z"/>
    <glyph glyph-name="uni062E" unicode="خ" horiz-adv-x="1734" arabic-form="isolated" d="M1537 -563q-156 -112 -334 -174.5t-379 -62.5q-166 0 -310 47.5t-248.5 137.5t-160.5 220.5t-46 297.5q7 112 55 209t128 177t185.5 142t226.5 104t252 63t261 19q-87 33 -163 72t-144 72.5t-129.5 56t-118.5 22.5q-41 0 -84 -19.5t-82 -50t-72 -68t-52 -74.5l-213 137 q39 68 86 127t108 103.5t137 71t172 30.5q62 0 121.5 -13t116.5 -36.5t113 -54.5t110 -67q85 -56 154 -94t130.5 -63.5t118.5 -41.5t117 -28l-79 -294q-2 0 -23.5 -1.5t-59.5 0.5q-70 4 -154.5 -1t-175.5 -20t-183.5 -39t-179 -57t-162.5 -75t-133 -93t-91 -110.5 t-36 -127.5q-4 -110 40.5 -188.5t121 -129.5t176.5 -75t208 -24q142 0 272.5 46.5t252.5 136.5l150 -210v0zM738 1424l-191 -191l-192 192l191 191z"/>
    <glyph glyph-name="uniFEA7" unicode="خ" horiz-adv-x="1548" arabic-form="initial" d="M-131 98q0 27 10 50.5t28 40.5t41.5 27t50.5 10h198q124 0 252.5 23.5t255.5 62t248 88.5t229 103q-86 19 -160 50.5t-140 61.5t-127 52t-121 22q-35 0 -65.5 -12.5t-56.5 -31.5t-46.5 -42t-36 -44.5t-25.5 -38.5t-14 -24l-208 135q34 60 81 116.5t104.5 101t124.5 71 t142 26.5q77 0 153 -20.5t150.5 -51.5t149.5 -67.5t151.5 -68t154.5 -53t160 -22.5l-21 -258q-140 -67 -292 -142t-318 -139t-347 -107t-378 -47h-190h-8q-27 0 -50.5 10t-41.5 27.5t-28 40.5t-10 50zM783 1285l-191 -191l-192 192l191 191z"/>
    <glyph glyph-name="uniFEA8" unicode="خ" horiz-adv-x="1669" arabic-form="medial" d="M-129 97q0 26 10 49.5t27.5 41t41 28t50.5 10.5h183q123 0 248 24.5t246 64.5t235 89t215 99q-41 5 -85.5 21t-91.5 36.5t-96 43t-98 41.5t-98.5 31t-96.5 12q-37 0 -70.5 -13.5t-63 -34t-53 -44.5t-40 -44.5t-26 -34.5l-9.5 -14l-200 109q35 66 89 126.5t116.5 107 t129 74t127.5 27.5q51 0 102.5 -11.5t104 -30t106.5 -43t109 -49.5q58 -28 127 -55.5t142 -49t146.5 -35t140.5 -13.5l-43 -244q-38 -16 -73 -34.5t-72 -35.5q20 -42 61 -66t86.5 -36t88 -15t66.5 -3h14q27 0 50.5 -10.5t41 -28t27.5 -41t10 -49.5q0 -27 -10 -50 t-27.5 -40.5t-41 -27t-50.5 -9.5h-14q-98 0 -182 17.5t-152.5 51t-119 82t-80.5 110.5q-101 -50 -209 -97t-224 -83.5t-241.5 -59t-261.5 -22.5l-183 1q-27 0 -50.5 9.5t-41 27t-27.5 40.5t-10 50zM753 1283l-191 -191l-192 192l191 191z"/>
    <glyph glyph-name="uniFEA6" unicode="خ" horiz-adv-x="1707" arabic-form="final" d="M1556 -580q-156 -112 -334 -174.5t-379 -62.5q-166 0 -310 47.5t-248.5 137.5t-160.5 220.5t-46 297.5q6 112 54.5 209t128.5 177t185.5 142t226.5 104t252 63t261 19q-96 34 -173 73t-143 72.5t-124 55.5t-115 22q-41 0 -79 -13.5t-72 -37.5t-62 -56t-47 -69l-213 137 q39 68 87.5 123t108 93.5t128.5 59t149 20.5q62 0 121.5 -13t116.5 -36.5t113 -54.5t110 -67q85 -56 157 -94t136.5 -63.5t124.5 -41.5t120 -28l-79 -265l-188 -24q3 -36 21 -63t45 -45.5t61 -30t70.5 -18t72.5 -8.5t67 -2q26 0 49.5 -10.5t41 -28t28 -41t10.5 -50.5 t-10.5 -50t-28 -40t-41 -26.5t-49.5 -9.5q-135 0 -231.5 25t-163 63.5t-106.5 85t-61 90t-28 78.5t-6 51q-90 -15 -181 -39.5t-176 -58t-159 -75t-129.5 -92t-88.5 -109t-35 -125.5q-4 -110 40.5 -188.5t121 -129.5t176.5 -75t208 -24q142 0 272.5 46.5t252.5 136.5 l150 -210v0zM803 1411l-191 -191l-192 192l191 191z"/>
    <glyph glyph-name="uni0630" unicode="ذ" horiz-adv-x="1138" arabic-form="isolated" d="M171 363q38 -24 91.5 -49t111 -45.5t113 -33t97.5 -12.5q25 0 67.5 2.5t83.5 14t71 36t31 69.5q1 41 -22 92.5t-62 107t-90 111.5t-106 107.5t-110.5 95t-103.5 73.5l149 221q92 -63 181.5 -142t165 -168.5t131 -186.5t79.5 -196q26 -111 1 -205t-90 -161.5t-165 -103.5 t-224 -30q-66 0 -134 13t-133.5 34.5t-126 50t-112.5 60.5zM664 1529l-191 -191l-192 192l191 191z"/>
    <glyph glyph-name="uniFEAC" unicode="ذ" horiz-adv-x="1291" arabic-form="final" d="M519 -30q-124 0 -235.5 56t-207.5 156l147 207q91 -83 170 -121t151 -38q17 0 38 1.5t43 5t42.5 8.5t36.5 11q18 7 37.5 15t37 16.5t31.5 16.5t23 15l-319 770l237 99q35 -87 83 -202q41 -99 99.5 -241t135.5 -325l16 -39q13 -34 27 -62.5t35.5 -49t55 -32t85.5 -11.5 q26 0 49.5 -10t41 -27t28 -40.5t10.5 -50.5t-10.5 -50.5t-28 -40.5t-41 -27t-49.5 -10q-63 0 -113 9.5t-89.5 26t-70 39t-54.5 48.5q-29 -20 -74 -40.5t-88 -37.5q-58 -23 -129 -34t-151 -11zM807 1561l-191 -191l-192 192l191 191z"/>
    <glyph glyph-name="uni0688" unicode="ڈ" horiz-adv-x="1149" arabic-form="isolated" d="M179 363q38 -24 91.5 -49t111 -45.5t113 -33t97.5 -12.5q25 0 67.5 2.5t83.5 14t71 36t31 69.5q1 41 -22 92.5t-62 107t-90 111.5t-106 107.5t-110.5 95t-103.5 73.5l149 221q92 -63 181.5 -142t165 -168.5t131 -186.5t79.5 -196q26 -111 1 -205t-90 -161.5t-165 -103.5 t-224 -30q-66 0 -134 13t-133.5 34.5t-126 50t-112.5 60.5zM481 1296q-15 0 -29.5 0.5t-28.5 1.5q-132 6 -290 67l43 107q35 -14 62 -23t51 -15q12 15 22.5 31.5t22.5 33.5l1 1q5 37 8.5 67t3.5 59q0 26 -2 56t-5 69q-4 46 -8 86.5t-8 69.5q-4 34 -9 63l116 32 q8 -93 19 -184t12 -188q92 79 180 94q33 5 70 -3t68.5 -27.5t53 -49.5t25.5 -69q2 -24 -3.5 -48.5t-15.5 -46.5t-22.5 -41.5t-25.5 -32.5q-40 -36 -81 -57.5t-80.5 -33t-77.5 -15.5t-72 -4zM398 1413q23 -1 38 -1h29q26 0 62 3t74 11.5t74.5 23.5t63.5 39q14 14 22.5 31.5 t8.5 31.5q0 13 -10 25.5t-25.5 20.5t-35.5 11.5t-39 0.5t-45 -14.5t-55 -29.5t-58.5 -42t-55.5 -52q-9 -11 -19 -22t-18 -22z"/>
    <glyph glyph-name="uniFB89" unicode="ڈ" horiz-adv-x="1308" arabic-form="final" d="M519 -30q-124 0 -235.5 56t-207.5 156l147 207q91 -83 170 -121t151 -38q17 0 38 1.5t43 5t42.5 8.5t36.5 11q18 7 37.5 15t37 16.5t31.5 16.5t23 15l-319 770l237 99q35 -87 83 -202q41 -99 99.5 -241t135.5 -325l16 -39q13 -34 27 -62.5t35.5 -49t55 -32t85.5 -11.5 q26 0 49.5 -10t41 -27t28 -40.5t10.5 -50.5t-10.5 -50.5t-28 -40.5t-41 -27t-49.5 -10q-63 0 -113 9.5t-89.5 26t-70 39t-54.5 48.5q-29 -20 -74 -40.5t-88 -37.5q-58 -23 -129 -34t-151 -11zM529 1299q-15 0 -29.5 0.5t-28.5 1.5q-132 6 -290 67l43 107q35 -14 62 -23 t51 -15q12 15 22.5 31.5t22.5 33.5l1 1q5 37 8.5 67t3.5 59q0 26 -2 56t-5 69q-4 46 -8 86.5t-8 69.5q-4 34 -9 63l116 32q8 -93 19 -184t12 -188q92 79 180 94q33 5 70 -3t68.5 -27.5t53 -49.5t25.5 -69q2 -24 -3.5 -48.5t-15.5 -46.5t-22.5 -41.5t-25.5 -32.5 q-40 -36 -81 -57.5t-80.5 -33t-77.5 -15.5t-72 -4zM446 1416q23 -1 38 -1h29q26 0 62 3t74 11.5t74.5 23.5t63.5 39q14 14 22.5 31.5t8.5 31.5q0 13 -10 25.5t-25.5 20.5t-35.5 11.5t-39 0.5t-45 -14.5t-55 -29.5t-58.5 -42t-55.5 -52q-9 -11 -19 -22t-18 -22z"/>
    <glyph glyph-name="uni0632" unicode="ز" horiz-adv-x="722" arabic-form="isolated" d="M548 635q34 -96 60 -193q11 -41 22 -86.5t19.5 -91.5t13.5 -90.5t5 -83.5q0 -90 -27.5 -175.5t-76 -165t-115 -151.5t-144.5 -136t-165 -119t-176 -99l-114 229q71 35 140 77.5t131.5 90.5t116 101.5t92 110t60.5 116t22 121.5q0 57 -13 120t-31 125t-38 118.5t-33 100.5 zM589 1056l-191 -191l-192 192l191 191z"/>
    <glyph glyph-name="uniFEB0" unicode="ز" horiz-adv-x="819" arabic-form="final" d="M824 -30q-12 0 -31 0.5t-41.5 4.5t-48.5 12.5t-51 24.5q-13 -126 -76.5 -241.5t-160.5 -216.5t-217.5 -185t-247.5 -147l-112 231q70 36 140.5 78t134.5 89.5t119.5 100.5t96 109.5t64 116.5t23.5 123q0 8 -0.5 16.5t-1.5 16.5v-1q-7 56 -23.5 113.5t-35.5 111.5 t-38 103.5t-32 89.5l240 100q39 -117 73.5 -193.5t69.5 -121t71.5 -62t80.5 -17.5h5q27 0 50.5 -10.5t41 -28t27.5 -41t10 -49.5q0 -27 -10 -50t-27.5 -40.5t-41.5 -27t-51 -9.5zM577 1048l-191 -191l-192 192l191 191z"/>
    <glyph glyph-name="uni0691" unicode="ڑ" horiz-adv-x="864" arabic-form="isolated" d="M548 635q34 -96 60 -193q11 -41 22 -86.5t19.5 -91.5t13.5 -90.5t5 -83.5q0 -90 -27.5 -175.5t-76 -165t-115 -151.5t-144.5 -136t-165 -119t-176 -99l-114 229q71 35 140 77.5t131.5 90.5t116 101.5t92 110t60.5 116t22 121.5q0 57 -13 120t-31 125t-38 118.5t-33 100.5 zM396 915q-15 0 -29.5 0.5t-28.5 1.5q-132 6 -290 67l43 107q35 -14 62 -23t51 -15q12 15 22.5 31.5t22.5 33.5l1 1q5 37 8.5 67t3.5 59q0 26 -2 56t-5 69q-4 46 -8 86.5t-8 69.5q-4 34 -9 63l116 32q8 -93 19 -184t12 -188q92 79 180 94q33 5 70 -3t68.5 -27.5t53 -49.5 t25.5 -69q2 -24 -3.5 -48.5t-15.5 -46.5t-22.5 -41.5t-25.5 -32.5q-40 -36 -81 -57.5t-80.5 -33t-77.5 -15.5t-72 -4zM313 1032q23 -1 38 -1h29q26 0 62 3t74 11.5t74.5 23.5t63.5 39q14 14 22.5 31.5t8.5 31.5q0 13 -10 25.5t-25.5 20.5t-35.5 11.5t-39 0.5t-45 -14.5 t-55 -29.5t-58.5 -42t-55.5 -52q-9 -11 -19 -22t-18 -22z"/>
    <glyph glyph-name="uniFB8D" unicode="ڑ" horiz-adv-x="822" arabic-form="final" d="M824 -30q-12 0 -31 0.5t-41.5 4.5t-48.5 12.5t-51 24.5q-13 -126 -76.5 -241.5t-160.5 -216.5t-217.5 -185t-247.5 -147l-112 231q70 36 140.5 78t134.5 89.5t119.5 100.5t96 109.5t64 116.5t23.5 123q0 8 -0.5 16.5t-1.5 16.5v-1q-7 56 -23.5 113.5t-35.5 111.5 t-38 103.5t-32 89.5l240 100q39 -117 73.5 -193.5t69.5 -121t71.5 -62t80.5 -17.5h5q27 0 50.5 -10.5t41 -28t27.5 -41t10 -49.5q0 -27 -10 -50t-27.5 -40.5t-41.5 -27t-51 -9.5zM401 862q-15 0 -29.5 0.5t-28.5 1.5q-132 6 -290 67l43 107q35 -14 62 -23t51 -15 q12 15 22.5 31.5t22.5 33.5l1 1q5 37 8.5 67t3.5 59q0 26 -2 56t-5 69q-4 46 -8 86.5t-8 69.5q-4 34 -9 63l116 32q8 -93 19 -184t12 -188q92 79 180 94q33 5 70 -3t68.5 -27.5t53 -49.5t25.5 -69q2 -24 -3.5 -48.5t-15.5 -46.5t-22.5 -41.5t-25.5 -32.5q-40 -36 -81 -57.5 t-80.5 -33t-77.5 -15.5t-72 -4zM318 979q23 -1 38 -1h29q26 0 62 3t74 11.5t74.5 23.5t63.5 39q14 14 22.5 31.5t8.5 31.5q0 13 -10 25.5t-25.5 20.5t-35.5 11.5t-39 0.5t-45 -14.5t-55 -29.5t-58.5 -42t-55.5 -52q-9 -11 -19 -22t-18 -22z"/>
    <glyph glyph-name="uni0698" unicode="ژ" horiz-adv-x="930" arabic-form="isolated" d="M646 635q34 -96 60 -193q11 -41 22 -86.5t19.5 -91.5t13.5 -90.5t5 -83.5q0 -90 -27.5 -175.5t-76 -165t-115 -151.5t-144.5 -136t-165 -119t-176 -99l-114 229q71 35 140 77.5t131.5 90.5t116 101.5t92 110t60.5 116t22 121.5q0 57 -13 120t-31 125t-38 118.5t-33 100.5 zM451 1084l-170 -170l-172 171l170 171zM829 1083l-170 -171l-172 172l170 170zM313 1373l156 156l157 -157l-156 -156z"/>
    <glyph glyph-name="uniFB8B" unicode="ژ" horiz-adv-x="871" arabic-form="final" d="M874 -30q-12 0 -31 0.5t-41.5 4.5t-48.5 12.5t-51 24.5q-13 -126 -76.5 -241.5t-160.5 -216.5t-217.5 -185t-247.5 -147l-112 231q70 36 140.5 78t134.5 89.5t119.5 100.5t96 109.5t64 116.5t23.5 123q0 8 -0.5 16.5t-1.5 16.5v-1q-7 56 -23.5 113.5t-35.5 111.5 t-38 103.5t-32 89.5l240 100q39 -117 73.5 -193.5t69.5 -121t71.5 -62t80.5 -17.5h5q27 0 50.5 -10.5t41 -28t27.5 -41t10 -49.5q0 -27 -10 -50t-27.5 -40.5t-41.5 -27t-51 -9.5zM423 1013l-170 -170l-172 171l170 171zM801 1012l-170 -171l-172 172l170 170zM285 1302 l156 156l157 -157l-156 -156z"/>
    <glyph glyph-name="uni0634" unicode="ش" horiz-adv-x="2681" arabic-form="isolated" d="M2486 954q6 -11 20.5 -39t32.5 -69t37.5 -92t35.5 -107t26.5 -115.5t10.5 -116.5q-1 -92 -27.5 -172.5t-78 -140.5t-126.5 -94.5t-174 -34.5q-48 0 -86 10.5t-68 29.5t-52.5 44t-39.5 55q-22 -31 -45 -57t-54.5 -44.5t-75.5 -28.5t-107 -10q-57 0 -100 11t-72 25 q6 -120 -23.5 -218.5t-86 -175.5t-134 -134.5t-169 -94.5t-191 -55.5t-198.5 -18.5q-147 0 -271 48.5t-214.5 136t-141.5 210t-51 271.5q3 87 22.5 176.5t49.5 173.5t68 159t77 134l207 -153q-35 -56 -67.5 -116t-57.5 -122.5t-40.5 -127.5t-15.5 -131q-3 -83 27 -155.5 t87.5 -127t138 -86t178.5 -31.5q108 0 195.5 20t152.5 57t109 87.5t65 112.5q28 93 26 184t-24.5 182t-60.5 181t-81 180l225 138q14 -36 33 -88t43.5 -108t54 -111t64.5 -96.5t76 -63.5t89 -13q50 1 79.5 25t45.5 62.5t20.5 88t4.5 102.5l-5 169l245 25q2 -24 3 -46 q1 -19 1.5 -39t1.5 -33q1 -23 5 -59t12 -76t20 -81t30 -73.5t41.5 -53t54.5 -20.5q78 0 115 52.5t37 152.5q0 38 -12.5 84.5t-34 98.5t-50 108.5t-60.5 114.5zM1883 1144l-170 -170l-172 171l170 171zM2261 1143l-170 -171l-172 172l170 170zM1745 1433l156 156l157 -157 l-156 -156z"/>
    <glyph glyph-name="uniFEB7" unicode="ش" horiz-adv-x="1609" arabic-form="initial" d="M-122 97q0 25 9.5 48t26 40t38.5 28t47 13q60 0 106.5 24t81 64t59.5 91t43.5 105t32 106.5t24.5 94.5l250 -55q-9 -28 -23.5 -71.5t-28.5 -92t-23 -98t-6 -89t21.5 -64t60.5 -24.5q45 0 81 25.5t64.5 67t50 94.5t37 108.5t26 108.5t16.5 95l234 -45q-3 -31 -9.5 -65 t-13.5 -70.5t-12 -76t-5 -81.5q0 -33 6.5 -62t22 -51.5t41 -36t62.5 -14.5q71 0 116 36t45 110q0 54 -14.5 117t-35 123.5t-43.5 113t-40 87.5l215 120q6 -11 19.5 -40.5t30.5 -71.5t35.5 -95t33.5 -111t25 -119.5t10 -120.5q0 -93 -28.5 -168t-84 -128t-136.5 -81.5 t-186 -27.5q-51 -1 -91.5 12t-73 35.5t-58 51.5t-45.5 59q-23 -34 -50 -62t-62.5 -49t-80 -33.5t-102.5 -13.5q-49 -1 -89 11.5t-72.5 34t-59 50.5t-48.5 61q-19 -28 -44 -54.5t-61 -46.5t-86.5 -32.5t-120.5 -12.5h-17q-25 1 -47 11.5t-38.5 28t-26 40t-9.5 48.5zM918 1158 l-170 -170l-172 171l170 171zM1296 1157l-170 -171l-172 172l170 170zM780 1447l156 156l157 -157l-156 -156z"/>
    <glyph glyph-name="uniFEB8" unicode="ش" horiz-adv-x="1876" arabic-form="medial" d="M-131 98q0 25 10.5 48t29.5 40t44 27.5t54 12.5q59 0 109 20.5t93.5 74t80.5 146.5t70 238l245 -69q-12 -41 -23.5 -75t-20.5 -67t-14.5 -68.5t-5.5 -80.5q0 -23 4 -45t13 -39t23.5 -27t34.5 -9q37 1 70 27t61.5 67t52 92.5t42 105.5t31.5 105t20 90l236 -48 q-13 -60 -21 -111t-10 -101q-2 -38 2 -78t17 -72t36.5 -52.5t61.5 -20.5q44 0 70 33.5t40 85.5t18.5 115.5t4.5 123.5v30.5t-0.5 21.5t-1 22.5t-0.5 34.5l253 20q3 -33 5.5 -64.5t6 -65t8 -71t10.5 -81.5q7 -52 30 -91t54.5 -65t66.5 -39t66 -13h12q30 0 55 -10t43 -27 t28 -40.5t10 -50.5t-10 -50t-29 -40.5t-46.5 -27.5t-62.5 -10q-49 0 -96.5 10t-91 31t-80.5 53.5t-65 77.5q-10 -17 -21 -31t-23 -27q-49 -53 -114.5 -83.5t-139.5 -30.5q-94 0 -170.5 45t-121.5 120q-29 -37 -62.5 -67.5t-72 -53t-81.5 -35t-90 -12.5q-45 0 -87 11.5 t-78 33.5t-65 53.5t-48 70.5q-25 -44 -57 -75.5t-72.5 -51.5t-90.5 -29.5t-111 -9.5q-31 0 -56.5 10t-44 27.5t-28.5 40.5t-10 50zM986 1127l-170 -170l-172 171l170 171zM1364 1126l-170 -171l-172 172l170 170zM848 1416l156 156l157 -157l-156 -156z"/>
    <glyph glyph-name="uniFEB6" unicode="ش" horiz-adv-x="2889" arabic-form="final" d="M2228 -28q-47 0 -83.5 10.5t-65.5 29.5t-51.5 44.5t-39.5 54.5q-22 -31 -45 -57t-54.5 -44.5t-75.5 -28.5t-107 -10q-57 0 -100 11t-72 25q6 -120 -23.5 -218.5t-86 -175.5t-134 -134.5t-169 -94.5t-191 -55.5t-198.5 -18.5q-147 0 -271 48.5t-214.5 136t-141.5 210 t-51 271.5q3 87 22.5 176.5t49.5 173.5t68 159t77 134l207 -153q-35 -56 -67.5 -116t-57.5 -122.5t-40.5 -127.5t-15.5 -131q-3 -83 27 -155.5t87.5 -127t138 -86t178.5 -31.5q108 0 195.5 20t152.5 57t109 87.5t65 112.5q28 93 25.5 181t-25.5 176.5t-60.5 179.5t-79.5 190 l225 138q14 -36 33 -88t43.5 -108t54 -111t64.5 -96.5t76 -63.5t89 -13q50 1 79.5 25t45.5 62.5t20.5 88t4.5 102.5l-5 169l245 25q2 -24 3 -46q1 -19 1.5 -39t1.5 -33q1 -23 5 -59t12 -76t20 -81t30 -73.5t41.5 -53t54.5 -20.5q44 0 69.5 34t38 87.5t16 118t3.5 124.5v30.5 t-0.5 21.5t-1 22.5t-0.5 34.5l253 20q3 -33 5.5 -64.5t6 -65t8 -71t10.5 -81.5q7 -52 30 -91t54.5 -64.5t66.5 -38.5t66 -13h12q30 0 55 -10t43 -27.5t28 -41t10 -50.5t-10 -50t-28 -40.5t-43.5 -27.5t-56.5 -10q-116 0 -201 41t-142 131q-48 -79 -129 -124t-189 -45z M1943 1063l-170 -170l-172 171l170 171zM2321 1062l-170 -171l-172 172l170 170zM1805 1352l156 156l157 -157l-156 -156z"/>
    <glyph glyph-name="uni0636" unicode="ض" horiz-adv-x="2894" arabic-form="isolated" d="M836 -679q-99 0 -196.5 16t-184 53.5t-157 98.5t-115.5 151q-16 33 -30 70.5t-24.5 76.5t-16.5 78.5t-6 76.5q0 71 11.5 141t29.5 136t41 126.5t46 112.5t44 93t36 69l200 -142q-7 -9 -22 -36t-34 -67t-39.5 -91t-37 -108t-27.5 -117t-11 -119q0 -99 42 -168t110 -111.5 t154.5 -61.5t176.5 -19q103 0 190.5 29t153 83t105.5 131t48 174q1 11 1.5 25t0.5 25q0 78 -15 153t-36.5 143.5t-46.5 129.5t-45 111l231 126l32 -83q15 -38 31.5 -78.5t36.5 -78t44 -69.5t53 -53q42 88 114.5 174t162 158t188.5 124t195 73q73 17 145.5 12t138 -29 t120.5 -64.5t94 -94.5t58.5 -119t14.5 -137q-7 -95 -44 -170t-94 -131.5t-130.5 -96t-153.5 -64.5t-163 -36t-159 -11q-105 0 -205.5 17t-183.5 46q-38 15 -72 30.5t-66 35.5v-32q0 -155 -54 -285.5t-151 -225.5t-232 -148t-297 -53zM2319 624q-74 -21 -150.5 -59 t-145.5 -89t-123.5 -111t-83.5 -124q27 -8 61.5 -16t72.5 -15t77.5 -11.5t76.5 -4.5q42 0 96 5.5t110.5 17.5t111.5 32.5t98.5 50t71.5 70t31 92.5q3 48 -25.5 84.5t-73.5 58t-100 27.5t-105 -8zM2465 1250l-191 -191l-192 192l191 191z"/>
    <glyph glyph-name="uniFEBF" unicode="ض" horiz-adv-x="1894" arabic-form="initial" d="M-129 98q0 27 10.5 50.5t28 40.5t41 27t49.5 10q54 0 92.5 8t65 20.5t42.5 27t26 27.5q30 43 57 104t41 133q4 22 8 40.5t8.5 37t10 38.5t13.5 45l216 -69q-15 -63 -23.5 -109.5t-8.5 -96.5q0 -32 11 -62t24 -56q17 34 42.5 77.5t59 91t75 97.5t89.5 97q45 43 96.5 79.5 t106 65t110.5 48.5t110 29l-1 -1q60 12 113 12q102 0 187.5 -36.5t153.5 -106.5h-1q63 -64 93 -141.5t25 -158.5q-9 -96 -53 -182.5t-119 -149.5q-71 -56 -157.5 -91.5t-179 -56.5t-184.5 -29t-173 -8q-99 0 -178 6.5t-145.5 25t-126.5 52.5t-121 89q-68 -78 -165 -115 t-231 -38h-9q-26 0 -49.5 10t-41 27t-28 40.5t-10.5 50.5zM1021 503q-41 -33 -78 -70t-68 -74t-55 -71.5t-39 -61.5q67 -3 150.5 -6t171.5 1.5t174.5 18.5t158 43.5t122 78.5t68.5 123q-5 51 -35.5 86t-75 54.5t-97 24.5t-101.5 -3q-38 -6 -77.5 -20.5t-78 -34t-74.5 -42.5 t-66 -47zM1490 1250l-191 -191l-192 192l191 191z"/>
    <glyph glyph-name="uniFEC0" unicode="ض" horiz-adv-x="1931" arabic-form="medial" d="M-129 97q0 27 10 50.5t27.5 41t40.5 27.5t50 10h9q112 3 148 21h-1q21 11 38 26t33 35q32 42 52 106t40 149v-1q8 38 21 77t24 76l232 -77q-11 -24 -18.5 -44.5t-13 -41.5t-8 -43.5t-2.5 -51.5q0 -35 14.5 -71t28.5 -68q18 34 43 76.5t58 89.5t73.5 96.5t88.5 96.5 q93 88 201.5 144.5t220.5 77.5q56 10 108 10q103 0 190.5 -35.5t155.5 -107.5h-1q64 -64 93.5 -141t24.5 -158q-11 -138 -86 -241h167q27 0 50.5 -10t41 -27.5t28 -41t10.5 -50.5t-10.5 -50t-28 -40.5t-41 -27t-50.5 -9.5l-252 -1q-107 0 -173.5 6t-110.5 23 q-105 -28 -211 -37.5t-200 -9.5q-75 0 -137 4.5t-100 8.5q-5 0 -11.5 1t-11.5 1q-45 5 -85.5 14.5t-75.5 26.5l1 -1q-47 20 -85.5 51t-67.5 68q0 -1 0.5 -2t-2.5 4q-31 -35 -67.5 -61t-80.5 -46h1q-105 -50 -265 -50q-27 0 -50 9.5t-40.5 27t-27.5 40.5t-10 50zM1007 496 q-37 -35 -69 -71t-59 -71t-48 -68t-36 -60q76 -10 165 -12.5t180 4.5t176.5 25t154.5 49.5t114.5 78t55.5 110.5q-8 46 -39.5 82t-74.5 59t-92.5 31.5t-92.5 -0.5q-42 -6 -87.5 -19.5t-90 -33.5t-85 -46.5t-72.5 -57.5zM1545 1228l-191 -191l-192 192l191 191z"/>
    <glyph glyph-name="uniFEBE" unicode="ض" horiz-adv-x="2867" arabic-form="final" d="M795 -679q-99 0 -196.5 16t-184 53.5t-157 98.5t-115.5 151q-16 33 -30 70.5t-24.5 76.5t-16.5 78.5t-6 76.5q0 71 11.5 141t29.5 136t41 126.5t46 112.5t44 93t36 69l200 -142q-7 -9 -22 -36t-34 -67t-39.5 -91t-37 -108t-27.5 -117t-11 -119q0 -99 42 -168t110 -111.5 t154.5 -61.5t176.5 -19q103 0 190.5 29t153 83t105.5 131t48 174q1 11 1.5 25t0.5 25q0 78 -15 153t-36.5 143.5t-46.5 129.5t-45 111l231 126l32 -83q15 -38 31.5 -78.5t36.5 -78t44 -69.5t53 -53q42 88 114.5 174t162 158t188.5 124t195 73q73 17 145.5 12t138 -29 t120.5 -64.5t94 -94.5t58.5 -119t14.5 -137q-9 -112 -59 -199q3 -2 15.5 -5.5t29.5 -6.5t37.5 -5.5t38.5 -2.5h8q27 0 50.5 -10t41 -27.5t27.5 -41t10 -50.5t-10 -50t-27.5 -40t-41 -27t-50.5 -10q-56 0 -104 9t-87 22.5t-68 30.5t-47 34q-56 -35 -119 -59.5t-129 -40.5 t-132.5 -23t-127.5 -7q-105 0 -205.5 17t-183.5 46q-38 15 -72 30.5t-66 35.5v-32q0 -155 -54 -285.5t-151 -225.5t-232 -148t-297 -53zM2278 624q-74 -21 -150.5 -59t-145.5 -89t-123.5 -111t-83.5 -124q27 -8 61.5 -16t72.5 -15t77.5 -11.5t76.5 -4.5q42 0 96 5.5 t110.5 17.5t111.5 32.5t98.5 50t71.5 70t31 92.5q3 48 -25.5 84.5t-73.5 58t-100 27.5t-105 -8zM2487 1201l-191 -191l-192 192l191 191z"/>
    <glyph glyph-name="uni0638" unicode="ظ" horiz-adv-x="1787" arabic-form="isolated" d="M856 -30q-112 0 -214.5 6.5t-201 24t-194.5 48t-194 78.5l94 241q76 -29 141 -51.5t121 -36.5q20 29 48.5 67t67.5 89q7 46 11.5 85t7.5 75t4 69.5t1 68.5q0 46 -4.5 120t-11 159t-14.5 172.5t-15.5 161.5t-13.5 125.5t-8 64.5l256 68q6 -49 13 -114.5t15 -139.5 t15.5 -155t13.5 -161t9.5 -157.5t2.5 -144.5q56 50 106 91.5t104 72t117 48.5t145 20q74 2 146 -20.5t131 -67t99 -111t49 -151.5q1 -123 -36.5 -218.5t-102 -167t-150 -121t-180 -80.5t-192 -44.5t-186.5 -13.5zM649 226q134 -17 250 -10.5t211 30t168.5 60t122.5 80 t72.5 90t19.5 89.5q-4 40 -28 67t-56.5 43t-68 22.5t-63.5 6.5q-67 0 -149.5 -35.5t-167.5 -98.5t-166 -151t-145 -193zM1490 1338l-191 -191l-192 192l191 191z"/>
    <glyph glyph-name="uniFEC7" unicode="ظ" horiz-adv-x="1520" arabic-form="initial" d="M505 226q61 0 140.5 3t163.5 14t163.5 33t141.5 59t97.5 92.5t30.5 133.5q-2 30 -19.5 56t-48 44.5t-73 29t-94.5 8.5q-50 -2 -118.5 -25.5t-148 -78.5t-164.5 -145t-166 -224h95zM-132 98q0 26 10.5 49t28 40.5t41 28t49.5 10.5h9h126l7 13q17 30 48.5 80t79.5 112 q9 63 15 159t7 208q0 41 -0.5 81t-2.5 85.5t-6 98t-9.5 119t-13.5 149t-19 186.5l263 68q51 -381 51 -774v-26v-14v-14v-27q54 46 112.5 88t122 74t132.5 51t144 19q76 0 144 -24t120.5 -69.5t86.5 -110.5t42 -146q5 -114 -28 -206.5t-93.5 -164t-144 -123t-180 -84.5 t-202.5 -49t-210 -16l-592 1h-9q-26 0 -49.5 9.5t-41 27t-28 41t-10.5 50.5zM1239 1343l-191 -191l-192 192l191 191z"/>
    <glyph glyph-name="uniFEC8" unicode="ظ" horiz-adv-x="1570" arabic-form="medial" d="M-132 98q0 26 10.5 49t28 40.5t41 28t49.5 10.5h135l7 13q17 30 48.5 80t79.5 112q9 63 15 159t7 208q0 41 -0.5 81t-2.5 85.5t-6 98t-9.5 119t-13.5 149t-19 186.5l263 68q51 -381 51 -774v-26v-14v-14v-27q54 46 112.5 88t122 74t132.5 51t144 19q76 0 144 -24 t120.5 -69.5t86.5 -110.5t42 -146q5 -121 -31.5 -217t-103.5 -169h264q27 0 50.5 -9.5t40.5 -27t27 -40.5t10 -50t-10 -50t-27 -40.5t-41 -28t-51 -10.5h-247q-79 0 -176.5 7t-214.5 37q-85 -23 -172.5 -34t-175.5 -11l-592 1h-9q-26 0 -49.5 9.5t-41 27t-28 41t-10.5 50.5z M505 226q61 0 140.5 3t163.5 14t163.5 33t141.5 59t97.5 92.5t30.5 133.5q-2 30 -19.5 56t-48 44.5t-73 29t-94.5 8.5q-50 -2 -118.5 -25.5t-148 -78.5t-164.5 -145t-166 -224h95zM1248 1354l-191 -191l-192 192l191 191z"/>
    <glyph glyph-name="uniFEC6" unicode="ظ" horiz-adv-x="1868" arabic-form="final" d="M906 -30q-112 0 -214.5 6.5t-201 24t-194.5 48t-194 78.5l94 241q76 -29 141 -51.5t121 -36.5q20 29 48.5 67t67.5 89q7 46 11.5 85t7.5 75t4 69.5t1 68.5q0 46 -4.5 120t-11 159t-14.5 172.5t-15.5 161.5t-13.5 125.5t-8 64.5l256 68q5 -49 12.5 -114.5t15.5 -139.5 t16 -155t13.5 -161t9 -157.5t2.5 -144.5q56 50 106 91.5t104 72t117 48.5t145 20q74 2 146 -20.5t131 -67t99 -111t49 -151.5q1 -125 -37.5 -221t-104.5 -168h34h222q27 0 50.5 -9.5t40.5 -27t27 -40.5t10 -50t-10 -50t-27 -40.5t-41 -28t-51 -10.5h-257q-22 0 -61 0.5 t-84.5 3.5t-92 9.5t-83.5 18.5q-45 -12 -94.5 -18.5t-99.5 -9.5t-98 -3.5t-90 -0.5zM699 226q134 -17 250 -10.5t211 30t168.5 60t122.5 80t72.5 90t19.5 89.5q-4 40 -28 67t-56.5 43t-68 22.5t-63.5 6.5q-67 0 -149.5 -35.5t-167.5 -98.5t-166 -151t-145 -193zM1474 1355 l-191 -191l-192 192l191 191z"/>
    <glyph glyph-name="uni063A" unicode="غ" horiz-adv-x="1558" arabic-form="isolated" d="M828 -805q-75 0 -154.5 14t-157.5 43.5t-151.5 75t-135.5 109.5q-76 84 -115 193t-39 230q0 117 38 227t113 206q69 87 156 149t187 111q-28 24 -53.5 55t-45 70.5t-31 87.5t-11.5 107q1 58 19.5 113.5t50 104.5t75 91t95 72.5t108.5 48.5t117 20q59 3 115 -9t109.5 -35 t104.5 -55t101 -69l-146 -200q-40 32 -85 57q-38 21 -86.5 38.5t-99.5 15.5q-48 -3 -91.5 -23t-72.5 -56q-17 -21 -29.5 -54.5t-14.5 -69.5t9.5 -70t43.5 -56q35 -23 90 -38t127 -15q22 0 45.5 1.5t49.5 5.5q46 6 91.5 13t82.5 13q43 7 83 14l56 -256q-50 -6 -113.5 -16.5 t-133 -24t-140.5 -29t-136 -33t-119 -35.5t-90 -35q-24 -12 -57.5 -32t-69 -48t-70.5 -64.5t-62.5 -81.5t-44.5 -98.5t-17 -114.5q0 -99 43 -174t114 -125t162.5 -75.5t189.5 -25.5q124 0 253 45t240 137l149 -215q-92 -76 -177.5 -122t-166 -71t-156 -33.5t-146.5 -8.5z M1061 1643l-191 -191l-192 192l191 191z"/>
    <glyph glyph-name="uniFECF" unicode="غ" horiz-adv-x="1089" arabic-form="initial" d="M876 557q-38 43 -84 76q-40 29 -93 52.5t-116 23.5q-51 0 -89 -17.5t-64 -46t-39 -65.5t-13 -77q0 -56 25 -101.5t67.5 -77.5t98 -48t115.5 -12q58 4 116.5 12.5t106.5 16.5q55 10 107 21l31 -249q-62 -16 -139 -32.5t-176.5 -30t-226 -22t-285.5 -8.5l-218 -2 q-27 0 -50.5 10t-41.5 27t-28 40.5t-10 50.5q0 26 10.5 49t28.5 40t41.5 27.5t49.5 11.5l215 2q-54 63 -73.5 129t-19.5 146q0 94 35 178t96.5 147t146 100t183.5 37q49 0 94.5 -9t86.5 -24t77.5 -34t66.5 -38q71 -46 130 -104zM694 1331l-191 -191l-192 192l191 191z"/>
    <glyph glyph-name="uniFED0" unicode="غ" horiz-adv-x="1144" arabic-form="medial" d="M1138 226q26 0 49.5 -10.5t41 -28t28 -41t10.5 -50.5t-10.5 -50t-28 -40t-41 -27t-49.5 -10q-79 0 -155 5.5t-145.5 20.5t-131 42t-112.5 69q-55 -38 -128.5 -64.5t-154.5 -42.5t-163.5 -23t-154.5 -7q-26 0 -49.5 10t-41 27t-28 40t-10.5 50t10.5 50.5t28 41t41 28 t49.5 10.5q43 0 90.5 3t94.5 8.5t92 14t82 19.5q-39 39 -74 74.5t-70.5 71t-74 73t-83.5 79.5l14 208q57 50 116 84t116.5 56t110.5 33t97 15q49 5 100.5 4.5t102 -6.5t98.5 -18.5t90 -31.5q57 -25 92.5 -55.5t56 -61t28.5 -59t9 -49.5q4 -47 -14 -103.5t-51.5 -114.5 t-78.5 -112.5t-95 -97.5q63 -17 139 -25.5t157 -8.5zM317 660q35 -43 74 -85t76 -80t69 -69.5t54 -53.5q34 22 76.5 60t82 80t69 82t38.5 66q-24 13 -55 24t-65.5 19t-70 12t-68.5 4q-31 0 -68 -4t-75 -12t-73.5 -19t-63.5 -24zM789 1318l-191 -191l-192 192l191 191z"/>
    <glyph glyph-name="uniFECE" unicode="غ" horiz-adv-x="1351" arabic-form="final" d="M667 -557q73 -12 146.5 -8.5t142.5 19t132.5 42.5t116.5 62l135 -224q-58 -35 -119.5 -64.5t-127 -50.5t-135.5 -32.5t-146 -9.5q-95 2 -194.5 19.5t-191 56.5t-170 102t-132.5 156v-1q-35 57 -56 127.5t-21 144.5q0 77 22.5 151t54.5 134q30 53 71 100.5t90 88.5 t103 74.5t110 59.5q-32 30 -65.5 59.5t-64.5 56t-58 49t-45 38.5l-19 214q45 41 95.5 74.5t101 59.5t97.5 43.5t85 26.5q56 13 111 19t109 6q58 0 111.5 -7.5t100.5 -23.5l-1 1q115 -35 176 -107.5t57 -172.5q-4 -186 -168 -316q-29 -23 -65.5 -44.5t-70.5 -39.5 q40 -22 85.5 -40.5t93 -31.5t94 -20.5t90.5 -7.5q27 0 50 -10.5t40 -28.5t27 -41t10 -49q0 -27 -10 -50t-27 -40.5t-40 -27.5t-50 -10q-83 0 -163 17.5t-158 49t-155 75t-153 96.5q-73 -29 -148 -68t-136.5 -90t-100.5 -116t-39 -147q0 -46 18.5 -88.5t48.5 -78.5t69 -66 t80.5 -53t82 -37.5t73.5 -19.5zM846 792q-40 0 -84 -5.5t-87 -15t-82.5 -23t-69.5 -29.5q21 -22 47 -50.5t55.5 -59.5t60.5 -61.5t61 -56.5q66 28 123 57t99.5 59.5t67.5 63.5t26 68q-1 4 -13 12t-38.5 16t-67 15.5t-98.5 9.5zM950 1369l-191 -191l-192 192l191 191z"/>
    <glyph glyph-name="uniFB90" unicode="ک" horiz-adv-x="936" arabic-form="initial" d="M-150 97q0 27 10 51t28 41t43.5 27t56.5 10h56h49q57 0 119 1.5t118.5 10.5t102 29t69.5 57v-1q35 52 35 122q0 21 -3.5 44t-9.5 48v-1q-11 39 -49.5 101t-97.5 133.5t-134 147t-158 142.5l27 239l796 354l101 -238l-659 -275q44 -38 92.5 -83.5t94.5 -96.5 q69 -77 117 -150t77.5 -140t43 -127.5t13.5 -113.5q0 -72 -18.5 -132t-44.5 -108q-98 -173 -322 -213v1q-23 -5 -46 -6.5t-46 -1.5l-323 1q-30 0 -55.5 10t-44 27t-28.5 40t-10 50z"/>
    <glyph glyph-name="uniFB91" unicode="ک" horiz-adv-x="1169" arabic-form="medial" d="M-128 98q0 27 10.5 50t28 40.5t41 27.5t49.5 10h9h330q35 0 70 14t63.5 36.5t47 52t21.5 60.5q4 54 -12 112.5t-47 118.5t-73 119t-89.5 112t-97.5 99t-95 81l24 282l875 370l93 -229l-755 -310q77 -67 134.5 -133.5t103.5 -133t83 -133.5t72 -134h-1q25 -47 50 -93.5 t54 -94.5v1q27 -45 57.5 -81t66.5 -61t78.5 -39.5t93.5 -15.5h-1h42q27 0 50.5 -10t40.5 -27.5t27 -40.5t10 -50t-10 -50.5t-27 -40.5t-40.5 -27t-50.5 -10h-8q-74 0 -131 9.5t-112 27.5q-65 23 -121 66.5t-101 94.5q-29 -44 -70 -83q-35 -32 -74 -53t-81 -34t-86 -19.5 t-87 -8.5h-326q-26 0 -49.5 10t-41 27t-28 40.5t-10.5 50.5z"/>
    <glyph glyph-name="uni0641" unicode="ف" horiz-adv-x="1953" arabic-form="isolated" d="M984 -30q-198 2 -345 22.5t-256 60.5q-218 85 -296 244v-1q-45 87 -45 192q0 49 10.5 101.5t30.5 105.5q11 28 21 50.5t20.5 42.5t22.5 40t26 45l186 -156q-17 -23 -38.5 -63t-38 -85t-23 -87.5t7.5 -70.5q22 -45 83.5 -79.5t153.5 -57.5t210 -35.5t255 -12.5 q64 0 134.5 4.5t141 12t137 18t122 22t97 23.5t62.5 23h-102q-57 0 -111.5 7.5t-103 24t-89 42.5t-68.5 62q-25 32 -46.5 84t-21.5 129q0 40 6 79q14 81 42.5 148.5t70.5 119.5v-1q50 65 111.5 98t129.5 33q69 0 137.5 -35t124.5 -92q41 -47 74 -106.5t56.5 -127 t36.5 -140.5t13 -146q0 -21 -1 -43t-3 -42q-11 -97 -57 -168.5t-116 -121.5t-160 -81.5t-190.5 -49.5t-205.5 -24.5t-206 -7.5zM1481 897q-18 1 -40 -11t-43 -33.5t-39 -49.5t-27.5 -58.5t-9 -62t16.5 -58.5q6 -11 26.5 -19.5t47.5 -15t56 -10.5t53 -5q40 -2 84.5 -1t75.5 3 q-9 36 -25 89.5t-41 104t-58.5 87.5t-76.5 40zM1674 1465l-191 -191l-192 192l191 191z"/>
    <glyph glyph-name="uniFED3" unicode="ف" horiz-adv-x="903" arabic-form="initial" d="M-131 98q0 27 10 50.5t28 40.5t41.5 27t50.5 10q96 0 191.5 8t178 21t145.5 29.5t94 33.5h-102q-57 0 -111.5 9.5t-102.5 28t-88 46t-68 63.5q-25 32 -46.5 84t-21.5 129q0 40 6 79q14 81 42.5 148.5t70.5 119.5v-1q50 65 111.5 98t129.5 33q69 0 137.5 -35t124.5 -92 q41 -47 74 -106.5t56.5 -127t36.5 -140.5t13 -146q0 -21 -1 -43t-3 -42q-11 -97 -50.5 -168.5t-100.5 -121.5t-140.5 -81.5t-170.5 -49.5t-190 -24.5t-200 -7.5h-17q-27 0 -50 10t-40.5 27.5t-27.5 40.5t-10 50zM428 897q-18 1 -40 -11t-43 -33.5t-39 -49.5t-27.5 -58.5 t-9 -62t16.5 -58.5q6 -11 26.5 -19.5t47.5 -15t56 -10.5t53 -5q40 -2 84.5 -1t75.5 3q-9 36 -25 89.5t-41 104t-58.5 87.5t-76.5 40zM588 1470l-191 -191l-192 192l191 191z"/>
    <glyph glyph-name="uniFED4" unicode="ف" horiz-adv-x="1052" arabic-form="medial" d="M530 711q-26 -5 -59.5 -20t-63 -41.5t-50 -66t-20.5 -94.5q0 -18 16.5 -46.5t44 -57t63 -52.5t73.5 -34h1l2 -1q30 15 58.5 39t50.5 52.5t35.5 59t13.5 58.5q0 39 -16.5 74t-41.5 62t-53.5 45t-53.5 23zM-133 98q0 27 10 50.5t27 41t40.5 27t50.5 9.5q35 0 73 -0.5 t74 -0.5t68.5 1.5t57.5 4.5q-21 14 -44.5 38t-44 57.5t-35 76t-15.5 93.5q-3 97 27 173t87 148q59 73 134 113.5t156 37.5t150.5 -41.5t120.5 -99.5t80 -138.5t29 -158.5q0 -77 -28.5 -150t-73.5 -136q27 -4 58.5 -7t64 -5.5t64 -4t57.5 -1.5q27 0 51 -9.5t41 -27t27 -41 t10 -50.5t-10 -50.5t-27 -40.5t-41 -27t-51 -10h-9q-32 0 -69 1t-74.5 3.5t-73 5.5t-64.5 8q-58 9 -115 22t-117 45q-30 -22 -89.5 -38t-133 -26.5t-154.5 -15.5t-153 -5h-8q-27 0 -50.5 10t-40.5 27t-27 40.5t-10 50.5zM713 1355l-191 -191l-192 192l191 191z"/>
    <glyph glyph-name="uniFED2" unicode="ف" horiz-adv-x="2101" arabic-form="final" d="M966 -30q-312 3 -517 78.5t-302 230.5q-38 64 -54.5 133t-16.5 135q0 81 20 156v-1q12 49 25 85t24 60.5t19 38.5t11 19l193 -121q-10 -18 -23 -42.5t-24.5 -54.5t-19.5 -66t-8 -78q1 -65 26.5 -113t71 -81.5t107.5 -55.5t136.5 -35.5t157 -20.5t169.5 -11l361 7 q-21 14 -44.5 38.5t-44 59t-35 77.5t-15.5 94q-3 97 27 173t87 148q59 73 134 113.5t156 37.5t150.5 -41.5t120.5 -99.5t80 -138.5t29 -158.5q0 -77 -28.5 -150t-73.5 -136q27 -4 58.5 -8t64 -7.5t64 -6t57.5 -2.5q27 0 51 -9.5t41 -27t27 -41t10 -50.5t-10 -50.5t-27 -40.5 t-41 -27t-51 -10h-9q-32 0 -69 2t-74.5 5.5t-73 7.5t-64.5 9q-58 9 -115 22t-117 45q-20 -14 -60 -26.5t-92 -22.5t-113 -18t-123.5 -13.5t-122.5 -8t-110 -2.5zM1584 717q-26 -5 -59.5 -20t-63 -41.5t-50 -66t-20.5 -94.5q0 -18 16.5 -46.5t44 -57t63 -52.5t73.5 -34h1 l2 -1q30 15 58.5 39t50.5 52.5t35.5 59t13.5 58.5q0 39 -16.5 74t-41.5 62t-53.5 45t-53.5 23zM1775 1335l-191 -191l-192 192l191 191z"/>
    <glyph glyph-name="uniFB6A" unicode="ڤ" horiz-adv-x="1959" arabic-form="isolated" d="M984 -30q-198 2 -345 22.5t-256 60.5q-218 85 -296 244v-1q-45 87 -45 192q0 49 10.5 101.5t30.5 105.5q11 28 21 50.5t20.5 42.5t22.5 40t26 45l186 -156q-17 -23 -38.5 -63t-38 -85t-23 -87.5t7.5 -70.5q22 -45 83.5 -79.5t153.5 -57.5t210 -35.5t255 -12.5 q64 0 134.5 4.5t141 12t137 18t122 22t97 23.5t62.5 23h-102q-57 0 -111.5 7.5t-103 24t-89 42.5t-68.5 62q-25 32 -46.5 84t-21.5 129q0 40 6 79q14 81 42.5 148.5t70.5 119.5v-1q50 65 111.5 98t129.5 33q69 0 137.5 -35t124.5 -92q41 -47 74 -106.5t56.5 -127 t36.5 -140.5t13 -146q0 -21 -1 -43t-3 -42q-11 -97 -57 -168.5t-116 -121.5t-160 -81.5t-190.5 -49.5t-205.5 -24.5t-206 -7.5zM1481 897q-18 1 -40 -11t-43 -33.5t-39 -49.5t-27.5 -58.5t-9 -62t16.5 -58.5q6 -11 26.5 -19.5t47.5 -15t56 -10.5t53 -5q40 -2 84.5 -1t75.5 3 q-9 36 -25 89.5t-41 104t-58.5 87.5t-76.5 40zM1430 1489l-170 -170l-172 171l170 171zM1808 1488l-170 -171l-172 172l170 170zM1292 1778l156 156l157 -157l-156 -156z"/>
    <glyph glyph-name="uniFB6C" unicode="ڤ" horiz-adv-x="896" arabic-form="initial" d="M-131 98q0 27 10 50.5t28 40.5t41.5 27t50.5 10q96 0 191.5 8t178 21t145.5 29.5t94 33.5h-102q-57 0 -111.5 9.5t-102.5 28t-88 46t-68 63.5q-25 32 -46.5 84t-21.5 129q0 40 6 79q14 81 42.5 148.5t70.5 119.5v-1q50 65 111.5 98t129.5 33q69 0 137.5 -35t124.5 -92 q41 -47 74 -106.5t56.5 -127t36.5 -140.5t13 -146q0 -21 -1 -43t-3 -42q-11 -97 -50.5 -168.5t-100.5 -121.5t-140.5 -81.5t-170.5 -49.5t-190 -24.5t-200 -7.5h-17q-27 0 -50 10t-40.5 27.5t-27.5 40.5t-10 50zM428 897q-18 1 -40 -11t-43 -33.5t-39 -49.5t-27.5 -58.5 t-9 -62t16.5 -58.5q6 -11 26.5 -19.5t47.5 -15t56 -10.5t53 -5q40 -2 84.5 -1t75.5 3q-9 36 -25 89.5t-41 104t-58.5 87.5t-76.5 40zM332 1390l-170 -170l-172 171l170 171zM710 1389l-170 -171l-172 172l170 170zM194 1679l156 156l157 -157l-156 -156z"/>
    <glyph glyph-name="uniFB6D" unicode="ڤ" horiz-adv-x="1042" arabic-form="medial" d="M530 711q-26 -5 -59.5 -20t-63 -41.5t-50 -66t-20.5 -94.5q0 -18 16.5 -46.5t44 -57t63 -52.5t73.5 -34h1l2 -1q30 15 58.5 39t50.5 52.5t35.5 59t13.5 58.5q0 39 -16.5 74t-41.5 62t-53.5 45t-53.5 23zM-133 98q0 27 10 50.5t27 41t40.5 27t50.5 9.5q35 0 73 -0.5 t74 -0.5t68.5 1.5t57.5 4.5q-21 14 -44.5 38t-44 57.5t-35 76t-15.5 93.5q-3 97 27 173t87 148q59 73 134 113.5t156 37.5t150.5 -41.5t120.5 -99.5t80 -138.5t29 -158.5q0 -77 -28.5 -150t-73.5 -136q27 -4 58.5 -7t64 -5.5t64 -4t57.5 -1.5q27 0 51 -9.5t41 -27t27 -41 t10 -50.5t-10 -50.5t-27 -40.5t-41 -27t-51 -10h-9q-32 0 -69 1t-74.5 3.5t-73 5.5t-64.5 8q-58 9 -115 22t-117 45q-30 -22 -89.5 -38t-133 -26.5t-154.5 -15.5t-153 -5h-8q-27 0 -50.5 10t-40.5 27t-27 40.5t-10 50.5zM509 1287l-170 -170l-172 171l170 171zM887 1286 l-170 -171l-172 172l170 170zM371 1576l156 156l157 -157l-156 -156z"/>
    <glyph glyph-name="uniFB6B" unicode="ڤ" horiz-adv-x="2106" arabic-form="final" d="M966 -30q-312 3 -517 78.5t-302 230.5q-38 64 -54.5 133t-16.5 135q0 81 20 156v-1q12 49 25 85t24 60.5t19 38.5t11 19l193 -121q-10 -18 -23 -42.5t-24.5 -54.5t-19.5 -66t-8 -78q1 -65 26.5 -113t71 -81.5t107.5 -55.5t136.5 -35.5t157 -20.5t169.5 -11l361 7 q-21 14 -44.5 38.5t-44 59t-35 77.5t-15.5 94q-3 97 27 173t87 148q59 73 134 113.5t156 37.5t150.5 -41.5t120.5 -99.5t80 -138.5t29 -158.5q0 -77 -28.5 -150t-73.5 -136q27 -4 58.5 -8t64 -7.5t64 -6t57.5 -2.5q27 0 51 -9.5t41 -27t27 -41t10 -50.5t-10 -50.5t-27 -40.5 t-41 -27t-51 -10h-9q-32 0 -69 2t-74.5 5.5t-73 7.5t-64.5 9q-58 9 -115 22t-117 45q-20 -14 -60 -26.5t-92 -22.5t-113 -18t-123.5 -13.5t-122.5 -8t-110 -2.5zM1584 717q-26 -5 -59.5 -20t-63 -41.5t-50 -66t-20.5 -94.5q0 -18 16.5 -46.5t44 -57t63 -52.5t73.5 -34h1 l2 -1q30 15 58.5 39t50.5 52.5t35.5 59t13.5 58.5q0 39 -16.5 74t-41.5 62t-53.5 45t-53.5 23zM1572 1276l-170 -170l-172 171l170 171zM1950 1275l-170 -171l-172 172l170 170zM1434 1565l156 156l157 -157l-156 -156z"/>
    <glyph glyph-name="uniFED7" unicode="ق" horiz-adv-x="908" arabic-form="initial" d="M-131 98q0 27 10 50.5t28 40.5t41.5 27t50.5 10q96 0 191.5 8t178 21t145.5 29.5t94 33.5h-102q-57 0 -111.5 9.5t-102.5 28t-88 46t-68 63.5q-25 32 -46.5 84t-21.5 129q0 40 6 79q14 81 42.5 148.5t70.5 119.5v-1q50 65 111.5 98t129.5 33q69 0 137.5 -35t124.5 -92 q41 -47 74 -106.5t56.5 -127t36.5 -140.5t13 -146q0 -21 -1 -43t-3 -42q-11 -97 -50.5 -168.5t-100.5 -121.5t-140.5 -81.5t-170.5 -49.5t-190 -24.5t-200 -7.5h-17q-27 0 -50 10t-40.5 27.5t-27.5 40.5t-10 50zM428 897q-18 1 -40 -11t-43 -33.5t-39 -49.5t-27.5 -58.5 t-9 -62t16.5 -58.5q6 -11 26.5 -19.5t47.5 -15t56 -10.5t53 -5q40 -2 84.5 -1t75.5 3q-9 36 -25 89.5t-41 104t-58.5 87.5t-76.5 40zM390 1481l-170 -170l-172 171l170 171zM768 1480l-170 -171l-172 172l170 170z"/>
    <glyph glyph-name="uniFED8" unicode="ق" horiz-adv-x="1080" arabic-form="medial" d="M550 711q-26 -5 -59.5 -20t-63 -41.5t-50 -66t-20.5 -94.5q0 -18 16.5 -46.5t44 -57t63 -52.5t73.5 -34h1l2 -1q30 15 58.5 39t50.5 52.5t35.5 59t13.5 58.5q0 39 -16.5 74t-41.5 62t-53.5 45t-53.5 23zM-113 98q0 27 10 50.5t27 41t40.5 27t50.5 9.5q35 0 73 -0.5 t74 -0.5t68.5 1.5t57.5 4.5q-21 14 -44.5 38t-44 57.5t-35 76t-15.5 93.5q-3 97 27 173t87 148q59 73 134 113.5t156 37.5t150.5 -41.5t120.5 -99.5t80 -138.5t29 -158.5q0 -77 -28.5 -150t-73.5 -136q27 -4 58.5 -7t64 -5.5t64 -4t57.5 -1.5q27 0 51 -9.5t41 -27t27 -41 t10 -50.5t-10 -50.5t-27 -40.5t-41 -27t-51 -10h-9q-32 0 -69 1t-74.5 3.5t-73 5.5t-64.5 8q-58 9 -115 22t-117 45q-30 -22 -89.5 -38t-133 -26.5t-154.5 -15.5t-153 -5h-8q-27 0 -50.5 10t-40.5 27t-27 40.5t-10 50.5zM535 1334l-170 -170l-172 171l170 171zM913 1333 l-170 -171l-172 172l170 170z"/>
    <glyph glyph-name="uni0642" unicode="ق" horiz-adv-x="1592" arabic-form="isolated" d="M1068 -29q-112 10 -202 48t-142 107v-1q-38 48 -60.5 104t-22.5 122q0 51 11.5 104t31 103t44.5 95t52 81v-1q54 69 119.5 105t137.5 36q155 0 283 -139q46 -51 82 -116t61 -138.5t38.5 -153.5t13.5 -161q0 -23 -0.5 -45t-1.5 -45q0 -10 -3.5 -44.5t-14.5 -85t-31 -111.5 t-53 -124h1q-41 -79 -100.5 -146t-125.5 -114q-85 -57 -191 -88.5t-224 -31.5q-103 0 -196.5 19.5t-169.5 59.5q-82 42 -146.5 99.5t-107.5 134.5v-1q-47 76 -71 165t-24 189q0 146 42.5 285.5t114.5 279.5l192 -113q-71 -133 -97.5 -243.5t-26.5 -207.5q0 -96 40 -172.5 t107.5 -129t157 -80.5t189.5 -27q98 0 178.5 29t143 79.5t106.5 120t70 152.5h-6zM1037 615q-35 0 -66.5 -23.5t-54.5 -61t-35.5 -84t-8.5 -92.5q3 -36 30 -59.5t62 -37.5t68.5 -21t50.5 -8q22 -2 50.5 -2.5t57.5 0t56 1t46 1.5q-7 100 -47.5 182.5t-94.5 150.5 q-8 10 -22 20t-30 17.5t-32.5 12t-29.5 4.5zM988 1166l-170 -170l-172 171l170 171zM1366 1165l-170 -171l-172 172l170 170z"/>
    <glyph glyph-name="uniFED6" unicode="ق" horiz-adv-x="1565" arabic-form="final" d="M1068 -29q-112 10 -202 48t-142 107v-1q-38 48 -60.5 104t-22.5 122q0 51 11.5 104t31 103t44.5 95t52 81v-1q54 69 119.5 105t137.5 36q155 0 283 -139q42 -47 75.5 -105t58 -123t39.5 -136.5t20 -144.5h52q27 0 50.5 -10t41 -27t28 -41t10.5 -51q0 -26 -10.5 -49 t-28 -40.5t-41 -27.5t-50.5 -10h-65q-10 -53 -30.5 -120.5t-58.5 -138.5h1q-41 -79 -100.5 -146t-125.5 -114q-85 -57 -191 -88.5t-224 -31.5q-103 0 -196.5 19.5t-169.5 59.5q-82 42 -146.5 99.5t-107.5 134.5v-1q-47 76 -71 165t-24 189q0 146 42.5 285.5t114.5 279.5 l192 -113q-71 -133 -97.5 -243.5t-26.5 -207.5q0 -96 40 -172.5t107.5 -129t157 -80.5t189.5 -27q98 0 178.5 29t143 79.5t106.5 120t70 152.5h-6zM1037 615q-35 0 -66.5 -23.5t-54.5 -61t-35.5 -84t-8.5 -92.5q3 -36 30 -59.5t62 -37.5t68.5 -21t50.5 -8q22 -2 50.5 -2.5 t57.5 0t56 1t46 1.5q-7 100 -47.5 182.5t-94.5 150.5q-8 10 -22 20t-30 17.5t-32.5 12t-29.5 4.5zM991 1162l-170 -170l-172 171l170 171zM1369 1161l-170 -171l-172 172l170 170z"/>
    <glyph glyph-name="uniFEE7" unicode="ن" horiz-adv-x="706" arabic-form="initial" d="M-135 98q0 27 10 50.5t27.5 40.5t40.5 27t50 10h103h45q42 0 83 3.5t77 14.5t63.5 31t42.5 52q11 22 11 66q0 26 -10.5 73t-29 104t-43 118t-51.5 114l231 114q25 -57 50 -121t44.5 -131.5t31.5 -135.5t12 -133q0 -97 -33 -173q-38 -88 -107 -144.5t-164 -84.5 q-57 -16 -110.5 -19.5t-99.5 -3.5h-137h-9q-27 0 -50 10t-40.5 27t-27.5 40.5t-10 50.5zM521 1248l-191 -191l-192 192l191 191z"/>
    <glyph glyph-name="uniFEE8" unicode="ن" horiz-adv-x="705" arabic-form="medial" d="M-128 98q0 27 10 50t27 40.5t40.5 27.5t50.5 10h17q153 0 232 52.5t79 157.5q0 28 -4 52.5t-11.5 52t-18 60.5t-22.5 77l246 69q18 -71 33.5 -148.5t15.5 -162.5q0 -34 5.5 -71t21 -68t42 -51t68.5 -20q26 0 49.5 -10t41 -27.5t28 -40.5t10.5 -50t-10.5 -50.5t-28 -40.5 t-40.5 -27t-49 -10q-97 0 -164.5 30.5t-113.5 80.5q-135 -111 -410 -111h-17q-27 0 -50.5 10t-40.5 27t-27 40.5t-10 50.5zM585 1126l-191 -191l-192 192l191 191z"/>
    <glyph glyph-name="uni0646" unicode="ن" horiz-adv-x="1592" arabic-form="isolated" d="M760 -718q-151 7 -267.5 43t-204.5 114q-54 48 -93.5 106t-66 123t-39 135.5t-12.5 144.5q0 158 47 315t139 296l197 -143q-18 -25 -44.5 -74t-51 -113t-41.5 -138t-17 -149q0 -89 37.5 -162t101.5 -125.5t148.5 -82t178.5 -31.5q112 -2 212.5 30.5t174.5 90.5t116 137 t38 171q-2 46 -15.5 102.5t-32.5 114.5t-40.5 113.5t-40.5 98.5t-32 69t-14 26l235 131q3 -4 16 -33t31 -76t39 -108t39.5 -128t32 -136.5t16.5 -134.5q5 -91 -13 -182.5t-59 -174t-105.5 -153.5t-153 -121.5t-202.5 -76.5t-254 -19zM1010 641l-191 -191l-192 192l191 191z "/>
    <glyph glyph-name="uniFEE6" unicode="ن" horiz-adv-x="1714" arabic-form="final" d="M1707 -30q-114 0 -208 42q1 -83 -14 -170t-49 -167t-87.5 -148.5t-129.5 -114.5h1q-47 -32 -101 -55t-114.5 -38t-127.5 -23.5t-142 -12.5q-167 0 -286.5 40t-207.5 115q-106 97 -158 228.5t-52 277.5q0 84 11 158.5t33 146.5t56 147t80 161l210 -152q-31 -56 -61 -122.5 t-52.5 -138t-33 -143.5t-1.5 -138q4 -24 14.5 -57.5t31 -69.5t52 -71.5t76.5 -63t105.5 -45t139.5 -17.5h17t10 1q100 5 186 20t154.5 46.5t117.5 82t76 125.5q25 70 20.5 148.5t-30 163.5t-66.5 176t-88 185l222 141l86 -165q45 -89 87 -137t81 -70.5t74.5 -26t67.5 -3.5 q27 0 50.5 -10t41 -27t27.5 -40.5t10 -50.5t-10 -50t-27.5 -40.5t-41 -27.5t-50.5 -10zM961 574l-191 -191l-192 192l191 191z"/>
    <glyph glyph-name="uni06C0" unicode="ۀ" horiz-adv-x="983" arabic-form="isolated" d="M485 -30q-5 0 -26 1t-51.5 6t-69 15t-77.5 29q-104 48 -158 131t-54 195q0 190 170 396q29 34 52.5 58.5t43.5 44.5q-14 11 -26 21t-20 18l-18 15l162 198q40 -31 104 -89t155 -157q251 -286 251 -505q0 -109 -52.5 -193t-143.5 -132q-33 -16 -68 -26t-67 -16t-60 -8 t-47 -2zM698 347q0 28 -19 71t-51 92t-73.5 99t-86.5 93q-29 -29 -62 -73t-61.5 -93.5t-47.5 -99t-19 -89.5q0 -33 21.5 -55.5t53.5 -36.5t67.5 -20t64.5 -6q35 0 73 5t69 18.5t51 36.5t20 58zM535 1537q-16 4 -33 8q-15 3 -33 6t-36 3q-29 0 -57 -9h1q-14 -6 -28.5 -15.5 t-26 -21.5t-19 -25.5t-7.5 -27.5q0 -12 6 -30v1q6 -15 20.5 -28.5t33 -23.5t39.5 -15.5t40 -5.5q8 0 16.5 1t16.5 4q27 9 53.5 22.5t48.5 27.5q26 16 49 33l77 -102q-48 -37 -109.5 -71.5t-146.5 -80.5l-240 -133l-62 113l167 93q-34 20 -61 50t-42 65q-15 36 -15 80 q0 33 11 64t30 58.5t45 49t56 35.5q25 11 51 15.5t53 4.5q23 0 47.5 -3.5t44.5 -8.5q24 -5 46 -12z"/>
    <glyph glyph-name="uniFBA5" unicode="ۀ" horiz-adv-x="1090" arabic-form="final" d="M544 110q-134 0 -230 35.5t-152 100.5q-32 41 -46 88.5t-14 90.5q0 38 6.5 69t15.5 53q40 84 100.5 146.5t125.5 108t128 75.5t109 48q-5 38 -7.5 76t-5.5 76l253 54q1 -9 4 -39.5t7.5 -72.5t9.5 -89.5t9 -89t7.5 -72t4.5 -37.5q15 -128 27.5 -209t22 -128t15.5 -67 t9 -26q10 -22 22.5 -36.5t30 -23t41 -12t53.5 -3.5q26 0 49.5 -10t41 -27t28 -40.5t10.5 -50.5t-10.5 -50t-28 -40.5t-41 -27.5t-49.5 -10q-41 0 -96.5 7t-111.5 33q-40 19 -72.5 46.5t-60.5 69.5q-56 -8 -107 -12t-98 -4zM660 373q-5 27 -10 64t-10 80.5t-10.5 90.5 t-11.5 94q-26 -11 -58 -28t-66 -38.5t-66.5 -45.5t-57.5 -49.5t-40.5 -51.5t-15.5 -50q0 -22 22 -36.5t55.5 -23t73 -12t73.5 -3.5q32 0 64 2.5t58 6.5zM684 1529q-16 4 -33 8q-15 3 -33 6t-36 3q-29 0 -57 -9h1q-14 -6 -28.5 -15.5t-26 -21.5t-19 -25.5t-7.5 -27.5 q0 -12 6 -30v1q6 -15 20.5 -28.5t33 -23.5t39.5 -15.5t40 -5.5q8 0 16.5 1t16.5 4q27 9 53.5 22.5t48.5 27.5q26 16 49 33l77 -102q-48 -37 -109.5 -71.5t-146.5 -80.5l-240 -133l-62 113l167 93q-34 20 -61 50t-42 65q-15 36 -15 80q0 33 11 64t30 58.5t45 49t56 35.5 q25 11 51 15.5t53 4.5q23 0 47.5 -3.5t44.5 -8.5q24 -5 46 -12z"/>
    <glyph glyph-name="uni0624" unicode="ؤ" horiz-adv-x="1043" arabic-form="isolated" d="M518 620q-26 0 -56 -22t-55 -56.5t-41.5 -76.5t-16.5 -82q0 -42 19.5 -69.5t50 -44.5t69 -25.5t76.5 -12.5q21 -1 46 -2t51.5 -1h52.5t49 2q-5 56 -21 106t-37.5 93t-47 77.5t-47.5 59.5v-1q-17 18 -41.5 36.5t-50.5 18.5zM64 -480q147 29 265.5 77.5t205.5 108.5 t141.5 128t72.5 136h-52t-54 1t-52 1.5t-44 2.5q-111 8 -200 47t-143 106q-38 48 -54.5 107t-16.5 124q0 51 9.5 103t27 101.5t40.5 93.5t50 80q54 69 120 104.5t138 35.5q155 0 283 -138q46 -51 82.5 -115.5t62 -138t39 -153.5t13.5 -162q0 -25 -1.5 -50t-3.5 -48 q-18 -170 -94 -307t-193.5 -238.5t-267 -166.5t-314.5 -90zM512 1319q-16 4 -33 8q-15 3 -33 6t-36 3q-29 0 -57 -9h1q-14 -6 -28.5 -15.5t-26 -21.5t-19 -25.5t-7.5 -27.5q0 -12 6 -30v1q6 -15 20.5 -28.5t33 -23.5t39.5 -15.5t40 -5.5q8 0 16.5 1t16.5 4q27 9 53.5 22.5 t48.5 27.5q26 16 49 33l77 -102q-48 -37 -109.5 -71.5t-146.5 -80.5l-240 -133l-62 113l167 93q-34 20 -61 50t-42 65q-15 36 -15 80q0 33 11 64t30 58.5t45 49t56 35.5q25 11 51 15.5t53 4.5q23 0 47.5 -3.5t44.5 -8.5q24 -5 46 -12z"/>
    <glyph glyph-name="uniFE86" unicode="ؤ" horiz-adv-x="1058" arabic-form="final" d="M64 -480q147 29 265.5 77.5t205.5 108.5t141.5 128t72.5 136h-52t-54 1t-52 1.5t-44 2.5q-111 8 -200 47t-143 106q-38 48 -54.5 107t-16.5 124q0 51 9.5 103t27 101.5t40.5 93.5t50 80q54 69 120 104.5t138 35.5q155 0 283 -138q42 -47 76 -105t59 -124t40.5 -137.5 t19.5 -146.5h47q27 0 50.5 -10t41 -27t28 -41t10.5 -51q0 -26 -10.5 -49t-28 -40.5t-41 -27.5t-50.5 -10h-67q-34 -147 -114.5 -266t-193.5 -207.5t-252.5 -145.5t-291.5 -81zM518 620q-26 0 -56 -22t-55 -56.5t-41.5 -76.5t-16.5 -82q0 -42 19.5 -69.5t50 -44.5t69 -25.5 t76.5 -12.5q21 -1 46 -2t51.5 -1h52.5t49 2q-5 56 -21 106t-37.5 93t-47 77.5t-47.5 59.5v-1q-17 18 -41.5 36.5t-50.5 18.5zM572 1355q-16 4 -33 8q-15 3 -33 6t-36 3q-29 0 -57 -9h1q-14 -6 -28.5 -15.5t-26 -21.5t-19 -25.5t-7.5 -27.5q0 -12 6 -30v1q6 -15 20.5 -28.5 t33 -23.5t39.5 -15.5t40 -5.5q8 0 16.5 1t16.5 4q27 9 53.5 22.5t48.5 27.5q26 16 49 33l77 -102q-48 -37 -109.5 -71.5t-146.5 -80.5l-240 -133l-62 113l167 93q-34 20 -61 50t-42 65q-15 36 -15 80q0 33 11 64t30 58.5t45 49t56 35.5q25 11 51 15.5t53 4.5q23 0 47.5 -3.5 t44.5 -8.5q24 -5 46 -12z"/>
    <glyph glyph-name="uniFBE8" unicode="ى" horiz-adv-x="708" arabic-form="initial" d="M-135 98q0 27 10 50.5t27.5 40.5t40.5 27t50 10h103h45q42 0 83 3.5t77 14.5t63.5 31t42.5 52q11 22 11 66q0 26 -10.5 73t-29 104t-43 118t-51.5 114l231 114q25 -57 50 -121t44.5 -131.5t31.5 -135.5t12 -133q0 -97 -33 -173q-38 -88 -107 -144.5t-164 -84.5 q-57 -16 -110.5 -19.5t-99.5 -3.5h-137h-9q-27 0 -50 10t-40.5 27t-27.5 40.5t-10 50.5z"/>
    <glyph glyph-name="uniFBE9" unicode="ى" horiz-adv-x="705" arabic-form="medial" d="M-128 98q0 27 10 50t27 40.5t40.5 27.5t50.5 10h17q153 0 232 52.5t79 157.5q0 28 -4 52.5t-11.5 52t-18 60.5t-22.5 77l246 69q18 -71 33.5 -148.5t15.5 -162.5q0 -34 5.5 -71t21 -68t42 -51t68.5 -20q26 0 49.5 -10t41 -27.5t28 -40.5t10.5 -50t-10.5 -50.5t-28 -40.5 t-40.5 -27t-49 -10q-97 0 -164.5 30.5t-113.5 80.5q-135 -111 -410 -111h-17q-27 0 -50.5 10t-40.5 27t-27 40.5t-10 50.5z"/>
    <glyph glyph-name="uniFEF3" unicode="ي" horiz-adv-x="882" arabic-form="initial" d="M353 -346l-170 -170l-172 171l170 171zM731 -347l-170 -171l-172 172l170 170zM-179 98q0 27 10 50.5t27.5 40.5t40.5 27t50 10h111h48q49 0 104 3.5t105.5 14t91.5 29t61 47.5q15 22 15.5 59t-10 81t-28 92.5t-37.5 94t-39.5 86t-32.5 68.5l233 115q27 -48 53.5 -115.5 t46.5 -139.5t32.5 -142t12.5 -124q0 -97 -33 -173q-38 -88 -107 -144.5t-164 -84.5q-29 -8 -72.5 -12.5t-88.5 -7t-85.5 -3t-62.5 -0.5h-145h-9q-27 0 -50 10t-40.5 27t-27.5 40.5t-10 50.5z"/>
    <glyph glyph-name="uniFEF4" unicode="ي" horiz-adv-x="854" arabic-form="medial" d="M-135 98q0 27 10 50.5t27 40.5t40.5 27t50.5 10h76q78 0 149.5 7t127 29.5t89 64t36.5 109.5q1 27 -2 53t-9.5 55.5t-16.5 64.5t-23 81l245 69q13 -48 21 -87.5t13 -76t8.5 -74.5t7.5 -84q3 -34 9 -71.5t20.5 -68.5t40 -51t67.5 -20q27 0 50.5 -10t41 -27t27.5 -40.5 t10 -50.5t-10.5 -50.5t-28 -40.5t-40.5 -27t-49 -10q-98 0 -165.5 32t-113.5 83q-42 -32 -99.5 -54t-124.5 -35.5t-139 -19.5t-142 -6h-76q-27 0 -50.5 10t-40.5 27t-27 40.5t-10 50.5zM328 -380l-170 -170l-172 171l170 171zM706 -381l-170 -171l-172 172l170 170z"/>
    <glyph glyph-name="uni064A" unicode="ي" horiz-adv-x="1781" arabic-form="isolated" d="M1365 861q89 20 184 8.5t176 -55.5l-91 -240q-52 23 -108 31t-113 -3q-34 -3 -73 -20t-77.5 -43.5t-74 -61t-63 -73t-43.5 -79t-16 -78.5q0 -23 8 -50l-1 1q8 -23 33 -39t59 -28t73.5 -21t76.5 -18q60 -14 119.5 -32t107 -49.5t77 -82t29.5 -130.5q0 -36 -6 -72 q-20 -105 -94 -192.5t-197 -149.5h1q-113 -57 -256 -87t-311 -30q-196 0 -347.5 57t-248.5 166q-45 53 -75.5 113.5t-47 126t-20 134.5t4.5 139q8 66 22 134t30 131.5t33 120.5t31.5 100t24 70t11.5 31l220 -89q-24 -75 -44 -140.5t-36 -128.5t-28.5 -126.5t-21.5 -134.5 q-5 -38 -2.5 -78.5t13.5 -80t30 -77t48 -69.5q59 -67 162 -100.5t241 -33.5q134 0 248 20.5t198.5 54.5t135 76.5t56.5 87.5q-1 9 -19 17t-45 16t-59.5 15t-62.5 15q-84 21 -156 47.5t-125 69.5t-83 109t-30 166q5 110 46 214.5t110.5 190t163 146.5t202.5 84zM790 -993 l-170 -170l-172 171l170 171zM1168 -994l-170 -171l-172 172l170 170z"/>
    <glyph glyph-name="uniFEF2" unicode="ي" horiz-adv-x="1687" arabic-form="final" d="M830 -682q-90 0 -186.5 9t-185.5 36.5t-164.5 78t-124.5 133.5l1 -2q-102 148 -102 378v25t1 26v-1q3 69 13.5 141t30 151.5t49 169t72.5 192.5l206 -95q-41 -102 -68 -188t-42.5 -160.5t-21.5 -139.5t-6 -125q0 -72 18.5 -129.5t47.5 -101.5q39 -53 98 -81.5 t124.5 -41.5t129 -15.5t110.5 -2.5q28 0 81.5 4t117 14t130.5 26t121.5 40t89 56t34.5 75q0 8 -17.5 22t-48 32t-71.5 37.5t-88 37.5q-69 23 -137 34t-135 23l34 250h775q26 0 49.5 -10t41 -27t28 -40.5t10.5 -50.5t-10.5 -50.5t-28 -40.5t-41 -27t-49.5 -10h-168 q40 -49 53.5 -96.5t14.5 -83.5q-4 -88 -45 -157.5t-105.5 -122t-146.5 -89t-168 -59.5t-169.5 -33.5t-151.5 -10.5zM771 -929l-170 -170l-172 171l170 171zM1149 -930l-170 -171l-172 172l170 170z"/>
    <glyph glyph-name="uni06CC" unicode="ی" horiz-adv-x="1759" arabic-form="isolated" d="M1365 861q89 20 184 8.5t176 -55.5l-91 -240q-52 23 -108 31t-113 -3q-34 -3 -73 -20t-77.5 -43.5t-74 -61t-63 -73t-43.5 -79t-16 -78.5q0 -23 8 -50l-1 1q8 -23 33 -39t59 -28t73.5 -21t76.5 -18q60 -14 119.5 -32t107 -49.5t77 -82t29.5 -130.5q0 -36 -6 -72 q-20 -105 -94 -192.5t-197 -149.5h1q-113 -57 -256 -87t-311 -30q-196 0 -347.5 57t-248.5 166q-45 53 -75.5 113.5t-47 126t-20 134.5t4.5 139q8 66 22 134t30 131.5t33 120.5t31.5 100t24 70t11.5 31l220 -89q-24 -75 -44 -140.5t-36 -128.5t-28.5 -126.5t-21.5 -134.5 q-5 -38 -2.5 -78.5t13.5 -80t30 -77t48 -69.5q59 -67 162 -100.5t241 -33.5q134 0 248 20.5t198.5 54.5t135 76.5t56.5 87.5q-1 9 -19 17t-45 16t-59.5 15t-62.5 15q-84 21 -156 47.5t-125 69.5t-83 109t-30 166q5 110 46 214.5t110.5 190t163 146.5t202.5 84z"/>
    <glyph glyph-name="uniFBFE" unicode="ی" horiz-adv-x="887" arabic-form="initial" d="M358 -345l-170 -170l-172 171l170 171zM736 -346l-170 -171l-172 172l170 170zM-179 98q0 27 10 50.5t27.5 40.5t40.5 27t50 10h111h48q49 0 104 3.5t105.5 14t91.5 29t61 47.5q15 22 15.5 59t-10 81t-28 92.5t-37.5 94t-39.5 86t-32.5 68.5l233 115q27 -48 53.5 -115.5 t46.5 -139.5t32.5 -142t12.5 -124q0 -97 -33 -173q-38 -88 -107 -144.5t-164 -84.5q-29 -8 -72.5 -12.5t-88.5 -7t-85.5 -3t-62.5 -0.5h-145h-9q-27 0 -50 10t-40.5 27t-27.5 40.5t-10 50.5z"/>
    <glyph glyph-name="uniFBFF" unicode="ی" horiz-adv-x="860" arabic-form="medial" d="M-135 98q0 27 10 50.5t27 40.5t40.5 27t50.5 10h76q78 0 149.5 7t127 29.5t89 64t36.5 109.5q1 27 -2 53t-9.5 55.5t-16.5 64.5t-23 81l245 69q13 -48 21 -87.5t13 -76t8.5 -74.5t7.5 -84q3 -34 9 -71.5t20.5 -68.5t40 -51t67.5 -20q27 0 50.5 -10t41 -27t27.5 -40.5 t10 -50.5t-10.5 -50.5t-28 -40.5t-40.5 -27t-49 -10q-98 0 -165.5 32t-113.5 83q-42 -32 -99.5 -54t-124.5 -35.5t-139 -19.5t-142 -6h-76q-27 0 -50.5 10t-40.5 27t-27 40.5t-10 50.5zM336 -380l-170 -170l-172 171l170 171zM714 -381l-170 -171l-172 172l170 170z"/>
    <glyph glyph-name="uniFBFD" unicode="ی" horiz-adv-x="1686" arabic-form="final" d="M830 -682q-90 0 -186.5 9t-185.5 36.5t-164.5 78t-124.5 133.5l1 -2q-102 148 -102 378v25t1 26v-1q3 69 13.5 141t30 151.5t49 169t72.5 192.5l206 -95q-41 -102 -68 -188t-42.5 -160.5t-21.5 -139.5t-6 -125q0 -72 18.5 -129.5t47.5 -101.5q39 -53 98 -81.5 t124.5 -41.5t129 -15.5t110.5 -2.5q28 0 81.5 4t117 14t130.5 26t121.5 40t89 56t34.5 75q0 8 -17.5 22t-48 32t-71.5 37.5t-88 37.5q-69 23 -137 34t-135 23l34 250h775q26 0 49.5 -10t41 -27t28 -40.5t10.5 -50.5t-10.5 -50.5t-28 -40.5t-41 -27t-49.5 -10h-168 q40 -49 53.5 -96.5t14.5 -83.5q-4 -88 -45 -157.5t-105.5 -122t-146.5 -89t-168 -59.5t-169.5 -33.5t-151.5 -10.5z"/>
    <glyph glyph-name="uni06D3" unicode="ۓ" horiz-adv-x="2342" arabic-form="isolated" d="M849 -224q-30 0 -72 1.5t-86 4t-84.5 5.5t-67.5 6q-77 9 -145 25.5t-124 39.5q-66 30 -116.5 71t-73.5 89q-22 45 -22 94q0 35 11 69.5t31 69.5q35 62 105.5 104t166 70.5t211 47t241.5 32.5q0 -32 -0.5 -58.5t-1.5 -52t-1.5 -51.5t-0.5 -56q-60 -9 -133.5 -24.5 t-143 -32t-128.5 -32.5t-91 -28h1q-21 -8 -44.5 -20t-49.5 -30q22 -23 85 -40.5t156.5 -29.5t211.5 -18t250 -6q109 0 226 2.5t235.5 8t235.5 13.5t226.5 19t208.5 24.5t181 30.5q-4 -33 -7.5 -60t-7.5 -52.5t-7.5 -52t-7.5 -57.5q-83 -25 -184 -43.5t-211 -33t-224.5 -24 t-225.5 -15.5t-213.5 -8.5t-187.5 -2.5h-64t-57 1h-1zM550 975q-16 4 -33 8q-15 3 -33 6t-36 3q-29 0 -57 -9h1q-14 -6 -28.5 -15.5t-26 -21.5t-19 -25.5t-7.5 -27.5q0 -12 6 -30v1q6 -15 20.5 -28.5t33 -23.5t39.5 -15.5t40 -5.5q8 0 16.5 1t16.5 4q27 9 53.5 22.5 t48.5 27.5q26 16 49 33l77 -102q-48 -37 -109.5 -71.5t-146.5 -80.5l-240 -133l-62 113l167 93q-34 20 -61 50t-42 65q-15 36 -15 80q0 33 11 64t30 58.5t45 49t56 35.5q25 11 51 15.5t53 4.5q23 0 47.5 -3.5t44.5 -8.5q24 -5 46 -12z"/>
    <glyph glyph-name="uniFBB1" unicode="ۓ" horiz-adv-x="1581" arabic-form="final" d="M889 -508q-87 0 -178 4t-182 15q-77 8 -145.5 25.5t-124.5 40.5q-66 29 -115.5 69t-73.5 88q-23 49 -23 101q0 35 10.5 70.5t30.5 67.5q30 46 87 87.5t129 70.5q39 14 112 30.5t175.5 31t233 24t284.5 9.5h475h7q26 0 49.5 -10t41 -27.5t27.5 -41t10 -49.5t-10 -49.5 t-27.5 -41t-41 -27.5t-49.5 -10h-598q-14 0 -47.5 -0.5t-80 -2t-101.5 -4t-111.5 -7t-110.5 -11.5t-98 -16q-38 -8 -68.5 -16t-56 -18.5t-48.5 -23.5t-45 -31q39 -26 99 -45t134 -33t158 -23t172 -14.5t176.5 -7.5t170.5 -2q119 0 211 1.5t137 3.5l65 -216 q-28 -2 -74.5 -3.5t-104 -3t-122 -2.5t-128.5 -1.5t-123.5 -1t-107.5 -0.5zM604 758q-16 4 -33 8q-15 3 -33 6t-36 3q-29 0 -57 -9h1q-14 -6 -28.5 -15.5t-26 -21.5t-19 -25.5t-7.5 -27.5q0 -12 6 -30v1q6 -15 20.5 -28.5t33 -23.5t39.5 -15.5t40 -5.5q8 0 16.5 1t16.5 4 q27 9 53.5 22.5t48.5 27.5q26 16 49 33l77 -102q-48 -37 -109.5 -71.5t-146.5 -80.5l-240 -133l-62 113l167 93q-34 20 -61 50t-42 65q-15 36 -15 80q0 33 11 64t30 58.5t45 49t56 35.5q25 11 51 15.5t53 4.5q23 0 47.5 -3.5t44.5 -8.5q24 -5 46 -12z"/>
    <glyph glyph-name="uni0626" unicode="ئ" horiz-adv-x="1723" arabic-form="isolated" d="M1365 861q89 20 184 8.5t176 -55.5l-91 -240q-52 23 -108 31t-113 -3q-34 -3 -73 -20t-77.5 -43.5t-74 -61t-63 -73t-43.5 -79t-16 -78.5q0 -23 8 -50l-1 1q8 -23 33 -39t59 -28t73.5 -21t76.5 -18q60 -14 119.5 -32t107 -49.5t77 -82t29.5 -130.5q0 -36 -6 -72 q-20 -105 -94 -192.5t-197 -149.5h1q-113 -57 -256 -87t-311 -30q-196 0 -347.5 57t-248.5 166q-45 53 -75.5 113.5t-47 126t-20 134.5t4.5 139q8 66 22 134t30 131.5t33 120.5t31.5 100t24 70t11.5 31l220 -89q-24 -75 -44 -140.5t-36 -128.5t-28.5 -126.5t-21.5 -134.5 q-5 -38 -2.5 -78.5t13.5 -80t30 -77t48 -69.5q59 -67 162 -100.5t241 -33.5q134 0 248 20.5t198.5 54.5t135 76.5t56.5 87.5q-1 9 -19 17t-45 16t-59.5 15t-62.5 15q-84 21 -156 47.5t-125 69.5t-83 109t-30 166q5 110 46 214.5t110.5 190t163 146.5t202.5 84zM702 1106 q-16 4 -33 8q-15 3 -33 6t-36 3q-29 0 -57 -9h1q-14 -6 -28.5 -15.5t-26 -21.5t-19 -25.5t-7.5 -27.5q0 -12 6 -30v1q6 -15 20.5 -28.5t33 -23.5t39.5 -15.5t40 -5.5q8 0 16.5 1t16.5 4q27 9 53.5 22.5t48.5 27.5q26 16 49 33l77 -102q-48 -37 -109.5 -71.5t-146.5 -80.5 l-240 -133l-62 113l167 93q-34 20 -61 50t-42 65q-15 36 -15 80q0 33 11 64t30 58.5t45 49t56 35.5q25 11 51 15.5t53 4.5q23 0 47.5 -3.5t44.5 -8.5q24 -5 46 -12z"/>
    <glyph glyph-name="uniFE8B" unicode="ئ" horiz-adv-x="711" arabic-form="initial" d="M-135 98q0 27 10 50.5t27.5 40.5t40.5 27t50 10h103h45q42 0 83 3.5t77 14.5t63.5 31t42.5 52q11 22 11 66q0 26 -10.5 73t-29 104t-43 118t-51.5 114l231 114q25 -57 50 -121t44.5 -131.5t31.5 -135.5t12 -133q0 -97 -33 -173q-38 -88 -107 -144.5t-164 -84.5 q-57 -16 -110.5 -19.5t-99.5 -3.5h-137h-9q-27 0 -50 10t-40.5 27t-27.5 40.5t-10 50.5zM497 1406q-16 4 -33 8q-15 3 -33 6t-36 3q-29 0 -57 -9h1q-14 -6 -28.5 -15.5t-26 -21.5t-19 -25.5t-7.5 -27.5q0 -12 6 -30v1q6 -15 20.5 -28.5t33 -23.5t39.5 -15.5t40 -5.5 q8 0 16.5 1t16.5 4q27 9 53.5 22.5t48.5 27.5q26 16 49 33l77 -102q-48 -37 -109.5 -71.5t-146.5 -80.5l-240 -133l-62 113l167 93q-34 20 -61 50t-42 65q-15 36 -15 80q0 33 11 64t30 58.5t45 49t56 35.5q25 11 51 15.5t53 4.5q23 0 47.5 -3.5t44.5 -8.5q24 -5 46 -12z"/>
    <glyph glyph-name="uniFE8C" unicode="ئ" horiz-adv-x="715" arabic-form="medial" d="M-128 98q0 27 10 50t27 40.5t40.5 27.5t50.5 10h17q153 0 232 52.5t79 157.5q0 28 -4 52.5t-11.5 52t-18 60.5t-22.5 77l246 69q18 -71 33.5 -148.5t15.5 -162.5q0 -34 5.5 -71t21 -68t42 -51t68.5 -20q26 0 49.5 -10t41 -27.5t28 -40.5t10.5 -50t-10.5 -50.5t-28 -40.5 t-40.5 -27t-49 -10q-97 0 -164.5 30.5t-113.5 80.5q-135 -111 -410 -111h-17q-27 0 -50.5 10t-40.5 27t-27 40.5t-10 50.5zM485 1289q-16 4 -33 8q-15 3 -33 6t-36 3q-29 0 -57 -9h1q-14 -6 -28.5 -15.5t-26 -21.5t-19 -25.5t-7.5 -27.5q0 -12 6 -30v1q6 -15 20.5 -28.5 t33 -23.5t39.5 -15.5t40 -5.5q8 0 16.5 1t16.5 4q27 9 53.5 22.5t48.5 27.5q26 16 49 33l77 -102q-48 -37 -109.5 -71.5t-146.5 -80.5l-240 -133l-62 113l167 93q-34 20 -61 50t-42 65q-15 36 -15 80q0 33 11 64t30 58.5t45 49t56 35.5q25 11 51 15.5t53 4.5q23 0 47.5 -3.5 t44.5 -8.5q24 -5 46 -12z"/>
    <glyph glyph-name="uniFE8A" unicode="ئ" horiz-adv-x="1683" arabic-form="final" d="M830 -682q-90 0 -186.5 9t-185.5 36.5t-164.5 78t-124.5 133.5l1 -2q-102 148 -102 378v25t1 26v-1q3 69 13.5 141t30 151.5t49 169t72.5 192.5l206 -95q-41 -102 -68 -188t-42.5 -160.5t-21.5 -139.5t-6 -125q0 -72 18.5 -129.5t47.5 -101.5q39 -53 98 -81.5 t124.5 -41.5t129 -15.5t110.5 -2.5q28 0 81.5 4t117 14t130.5 26t121.5 40t89 56t34.5 75q0 8 -17.5 22t-48 32t-71.5 37.5t-88 37.5q-69 23 -137 34t-135 23l34 250h775q26 0 49.5 -10t41 -27t28 -40.5t10.5 -50.5t-10.5 -50.5t-28 -40.5t-41 -27t-49.5 -10h-168 q40 -49 53.5 -96.5t14.5 -83.5q-4 -88 -45 -157.5t-105.5 -122t-146.5 -89t-168 -59.5t-169.5 -33.5t-151.5 -10.5zM918 587q-16 4 -33 8q-15 3 -33 6t-36 3q-29 0 -57 -9h1q-14 -6 -28.5 -15.5t-26 -21.5t-19 -25.5t-7.5 -27.5q0 -12 6 -30v1q6 -15 20.5 -28.5t33 -23.5 t39.5 -15.5t40 -5.5q8 0 16.5 1t16.5 4q27 9 53.5 22.5t48.5 27.5q26 16 49 33l77 -102q-48 -37 -109.5 -71.5t-146.5 -80.5l-240 -133l-62 113l167 93q-34 20 -61 50t-42 65q-15 36 -15 80q0 33 11 64t30 58.5t45 49t56 35.5q25 11 51 15.5t53 4.5q23 0 47.5 -3.5 t44.5 -8.5q24 -5 46 -12z"/>
    <glyph glyph-name="uni06C2" unicode="ۂ" horiz-adv-x="993" d="M495 -30q-5 0 -26 1t-51.5 6t-69 15t-77.5 29q-104 48 -158 131t-54 195q0 190 170 396q29 34 52.5 58.5t43.5 44.5q-14 11 -26 21t-20 18l-18 15l162 198q40 -31 104 -89t155 -157q251 -286 251 -505q0 -109 -52.5 -193t-143.5 -132q-33 -16 -68 -26t-67 -16t-60 -8 t-47 -2zM708 347q0 28 -19 71t-51 92t-73.5 99t-86.5 93q-29 -29 -62 -73t-61.5 -93.5t-47.5 -99t-19 -89.5q0 -33 21.5 -55.5t53.5 -36.5t67.5 -20t64.5 -6q35 0 73 5t69 18.5t51 36.5t20 58zM528 1531q-16 4 -33 8q-15 3 -33 6t-36 3q-29 0 -57 -9h1q-14 -6 -28.5 -15.5 t-26 -21.5t-19 -25.5t-7.5 -27.5q0 -12 6 -30v1q6 -15 20.5 -28.5t33 -23.5t39.5 -15.5t40 -5.5q8 0 16.5 1t16.5 4q27 9 53.5 22.5t48.5 27.5q26 16 49 33l77 -102q-48 -37 -109.5 -71.5t-146.5 -80.5l-240 -133l-62 113l167 93q-34 20 -61 50t-42 65q-15 36 -15 80 q0 33 11 64t30 58.5t45 49t56 35.5q25 11 51 15.5t53 4.5q23 0 47.5 -3.5t44.5 -8.5q24 -5 46 -12z"/>
    <glyph glyph-name="uniFBA6" unicode="ہ" horiz-adv-x="983" arabic-form="isolated" d="M485 -30q-5 0 -26 1t-51.5 6t-69 15t-77.5 29q-104 48 -158 131t-54 195q0 190 170 396q29 34 52.5 58.5t43.5 44.5q-14 11 -26 21t-20 18l-18 15l162 198q40 -31 104 -89t155 -157q251 -286 251 -505q0 -109 -52.5 -193t-143.5 -132q-33 -16 -68 -26t-67 -16t-60 -8 t-47 -2zM698 347q0 28 -19 71t-51 92t-73.5 99t-86.5 93q-29 -29 -62 -73t-61.5 -93.5t-47.5 -99t-19 -89.5q0 -33 21.5 -55.5t53.5 -36.5t67.5 -20t64.5 -6q35 0 73 5t69 18.5t51 36.5t20 58z"/>
    <glyph glyph-name="uni06C3" unicode="ۃ" horiz-adv-x="1020" d="M522 -30q-5 0 -26 1t-51.5 6t-69 15t-77.5 29q-104 48 -158 131t-54 195q0 190 170 396q29 34 52.5 58.5t43.5 44.5q-14 11 -26 21t-20 18l-18 15l162 198q40 -31 104 -89t155 -157q251 -286 251 -505q0 -109 -52.5 -193t-143.5 -132q-33 -16 -68 -26t-67 -16t-60 -8 t-47 -2zM735 347q0 28 -19 71t-51 92t-73.5 99t-86.5 93q-29 -29 -62 -73t-61.5 -93.5t-47.5 -99t-19 -89.5q0 -33 21.5 -55.5t53.5 -36.5t67.5 -20t64.5 -6q35 0 73 5t69 18.5t51 36.5t20 58zM428 1370l-170 -170l-172 171l170 171zM806 1369l-170 -171l-172 172l170 170z "/>
    <glyph glyph-name="uniFBAB" unicode="ھ" horiz-adv-x="1220" arabic-form="final" d="M32 0q-9 31 -3.5 54.5t21.5 42.5t40 35t51 32l154 62q1 63 15.5 140.5t41.5 156.5t65 154.5t85.5 134t103.5 95t119 37.5q47 1 89.5 -19t78.5 -55t63.5 -82t44.5 -100t21.5 -108.5t-5.5 -108.5q-15 -76 -50.5 -152t-90 -141.5t-126.5 -115.5t-159 -73q10 -23 31.5 -60.5 t47 -77t51.5 -75t44 -55.5q-4 62 12.5 123.5t48.5 118t76.5 104.5t96.5 83.5t108.5 55.5t112.5 20q27 0 50.5 -10t41 -27.5t27.5 -40.5t10 -50t-10 -50.5t-27.5 -40.5t-41 -27t-50.5 -10h-7q-50 -5 -96 -31t-81 -66t-56 -89t-21 -100q0 -45 12 -80t49 -75l-159 -193 q-114 69 -198.5 144t-146 154.5t-103 163t-69.5 168.5v-2q-2 6 -1.5 3t-1.5 3l-151 -42q-21 -8 -45 -8t-46.5 8.5t-40.5 26t-26 45.5zM814 509q2 33 -3.5 66.5t-17.5 62.5t-31 52t-43 36q-23 -7 -47 -36.5t-47 -72.5t-43 -95.5t-35 -106t-23.5 -103.5t-6.5 -89h2 q53 0 104.5 24t92.5 64t67.5 91.5t30.5 106.5z"/>
    <glyph glyph-name="uniFBAC" unicode="ھ" horiz-adv-x="1388" arabic-form="initial" d="M-138 99q0 27 10 50t27.5 40t40.5 27t50 10h9q29 0 86.5 2.5t131.5 6.5q-49 63 -72.5 138t-23.5 153q0 55 12 109.5t36 103.5t59.5 91t82.5 73q-8 2 -19.5 7.5t-22.5 11.5q-12 6 -26 14l148 224q3 0 27.5 -10t63 -27t87 -39t100.5 -45.5l104 -47t97 -43.5 q94 -42 164.5 -74.5t126 -64t99 -66.5t82.5 -83q51 -62 71 -134.5t20 -141.5q0 -104 -54 -197t-158 -155q-29 -17 -71 -29t-87 -20t-89.5 -12t-78.5 -4q-42 0 -93.5 4t-104 11.5t-102.5 19.5t-89 29q-47 -15 -107 -26t-127 -19t-136.5 -12t-136.5 -4h-9q-27 0 -50 10 t-40.5 27.5t-27.5 41t-10 50.5zM556 768q-39 6 -77 -18t-67.5 -64.5t-46 -90t-11.5 -94.5v1q4 -32 18.5 -63t36 -57.5t48.5 -45.5t57 -28q38 19 75.5 39.5t68 50.5t52 74t28.5 110q3 26 -15 56.5t-46 58t-61 47.5t-60 24zM980 574q0 -94 -30.5 -184.5t-90.5 -165.5 q17 -2 33 -3t31 -1q64 0 117.5 14.5t92.5 38.5t61 56t22 68q0 32 -18.5 66t-50.5 66.5t-76 62t-95 53.5q2 -17 3 -35.5t1 -35.5z"/>
    <glyph glyph-name="uniFBAD" unicode="ھ" horiz-adv-x="1003" arabic-form="medial" d="M-129 98q0 27 10 50t27 40.5t40.5 27.5t50.5 10h81q0 63 15 140.5t42 156.5t65 154.5t85.5 134t103.5 95t119 37.5q47 1 89.5 -19t78.5 -55t63.5 -82t44.5 -100t21.5 -108.5t-5.5 -108.5q-15 -76 -50.5 -152t-90 -141.5t-126.5 -115.5t-159 -73q10 -23 31.5 -60.5t47 -77 t51.5 -75t44 -55.5q-4 62 12.5 123.5t48.5 118t76.5 104.5t96.5 83.5t108.5 55.5t112.5 20q27 0 50.5 -10t41 -27.5t27.5 -40.5t10 -50t-10 -50.5t-27.5 -40.5t-41 -27t-50.5 -10h-7q-50 -5 -96 -31t-81 -66t-56 -89t-21 -100q0 -45 12 -80t49 -75l-159 -193 q-114 69 -198.5 144t-146 154.5t-103 163t-69.5 168.5v-2q-2 6 -1.5 3t-1.5 3h-127q-27 0 -50.5 10t-40.5 27t-27 40.5t-10 50.5zM599 509q2 33 -3.5 66.5t-17.5 62.5t-31 52t-43 36q-22 -7 -46.5 -36.5t-47.5 -72.5t-43 -95.5t-35 -106t-23.5 -103.5t-6.5 -89h2 q53 0 104.5 24t92.5 64t67.5 91.5t30.5 106.5z"/>
    <glyph glyph-name="uniFE70" unicode="ﹰ" arabic-form="isolated" d="M509 1312l-597 -221v144l597 213v-136zM509 1571l-597 -221v144l597 213v-136z"/>
    <glyph glyph-name="uniFE72" unicode="ﹲ" arabic-form="isolated" d="M-64 1158l15 24t20.5 34t18.5 36.5t8 33.5q0 12 -1 22t-6 17q-2 5 -10 11t-17 7q-11 0 -29.5 -8t-38 -18.5t-36 -21.5t-21.5 -16l-75 91q4 3 20.5 18t41.5 31t57 27.5t67 10.5q40 -2 73.5 -24t52.5 -55q11 -22 17 -49.5t6 -50.5q0 -12 -2 -31.5t-5 -32.5q22 7 48 16 t52.5 20t51 22.5t43.5 22.5l-7 4q-47 24 -80.5 49.5t-54.5 52t-30 51.5t-9 48q0 39 15 69q14 28 35.5 52.5t48 42t56.5 28t59 10.5q62 0 106.5 -38.5t61.5 -98.5q11 -38 11 -82q0 -33 -5 -64t-12 -57l32 -17l-38 -118l-59 17q-31 -29 -71.5 -53t-83.5 -43.5t-86 -34.5 t-78.5 -25t-61.5 -16.5t-34 -7.5zM313 1577q-19 0 -48 -14t-47 -41q-9 -12 10 -35.5t59 -43.5l72 -35q5 19 8 43t1 47.5t-12.5 43.5t-31.5 33q-9 2 -11 2z"/>
    <glyph glyph-name="uniFE74" unicode="ﹴ" arabic-form="isolated" d="M518 -509l-597 -221v144l597 213v-136zM518 -250l-597 -221v144l597 213v-136z"/>
    <glyph glyph-name="uniFE76" unicode="ﹶ" arabic-form="isolated" d="M513 1401l-597 -221v144l597 213v-136z"/>
    <glyph glyph-name="uniFE78" unicode="ﹸ" arabic-form="isolated" d="M-94 1167q25 7 64.5 18t84.5 26.5t91 34.5t81 41l-62 27q-37 17 -61 39t-38.5 45t-21 48t-6.5 48q0 41 14 68q14 28 36.5 52t50 41.5t58.5 28t62 10.5q40 0 70 -15q37 -17 63.5 -48.5t38.5 -71.5q7 -22 10 -43t3 -43q0 -31 -5.5 -61.5t-12.5 -55.5l34 -8l-40 -128 q-20 5 -36 9.5t-29 8.5q-43 -36 -99.5 -68.5t-112 -57t-102 -41.5t-67.5 -24l-30 -8zM247 1569q-10 0 -24.5 -5t-28.5 -13.5t-25.5 -20.5t-19.5 -26q-1 -13 15.5 -28.5t40.5 -32t52 -30.5t51 -22q4 14 4 40.5t-5.5 53.5t-16.5 50t-31 31q-6 3 -12 3z"/>
    <glyph glyph-name="uniFE7A" unicode="ﹺ" arabic-form="isolated" d="M526 -361l-597 -221v144l597 213v-136z"/>
    <glyph glyph-name="uniFE7C" unicode="ﹼ" arabic-form="isolated" d="M70 1122q-34 1 -60 8.5t-45 19t-32 25.5t-21 27q-13 22 -19 47.5t-6 51.5t6 52.5t13.5 49.5t15 40t12.5 25l102 -54q-7 -12 -12.5 -27.5t-10.5 -32t-7.5 -32t-2.5 -28.5q0 -21 5 -32v1q6 -8 21 -13.5t34 -5.5q13 0 29 5.5t22 13.5q9 11 15 27t10 34t5 37t1 36l109 47 q7 -61 18 -97.5t22.5 -55t22 -23.5t18.5 -5q30 2 53.5 19t23.5 44q0 21 -10 46t-25 49.5t-32.5 47.5t-32.5 41l105 73q7 -10 23.5 -36t33.5 -61t30 -74.5t13 -77.5q0 -24 -8 -48q-12 -40 -32.5 -68t-45 -45.5t-50.5 -26t-49 -8.5q-25 0 -57 9t-61 39q-53 -64 -136 -64h-8z "/>
    <glyph glyph-name="uniFE7E" unicode="ﹾ" arabic-form="isolated" d="M246 1231q25 0 43.5 9.5t31 23.5t19 31.5t6.5 34.5q0 16 -7 33t-20 31.5t-31.5 23.5t-41.5 9q-24 0 -42.5 -9t-31 -23.5t-19 -31.5t-6.5 -33q0 -17 6.5 -34.5t19 -31.5t31 -23.5t42.5 -9.5zM246 1564q44 1 83.5 -19.5t69 -54.5t46.5 -76t17 -84t-17.5 -84t-47 -75.5 t-68.5 -54.5t-83 -21t-83.5 20.5t-69 54t-47 75.5t-17.5 85q0 42 17 84t46.5 76t69 54.5t84.5 19.5z"/>
    <glyph glyph-name="uniFC5E" unicode="ﱞ" arabic-form="isolated" d="M62 1138q-34 1 -60 8.5t-45 19t-32 25.5t-21 27q-13 22 -19 47.5t-6 51.5t6 52.5t13.5 49.5t15 40t12.5 25l102 -54q-7 -12 -12.5 -27.5t-10.5 -32t-7.5 -32t-2.5 -28.5q0 -21 5 -32v1q6 -8 21 -13.5t34 -5.5q13 0 29 5.5t22 13.5q9 11 15 27t10 34t5 37t1 36l109 47 q7 -61 18 -97.5t22.5 -55t22 -23.5t18.5 -5q30 2 53.5 19t23.5 44q0 21 -10 46t-25 49.5t-32.5 47.5t-32.5 41l105 73q7 -10 23.5 -36t33.5 -61t30 -74.5t13 -77.5q0 -24 -8 -48q-12 -40 -32.5 -68t-45 -45.5t-50.5 -26t-49 -8.5q-25 0 -57 9t-61 39q-53 -64 -136 -64h-8z M-117 1633l15 24t20.5 34t18.5 36.5t8 33.5q0 12 -1 22t-6 17q-2 5 -10 11t-17 7q-11 0 -29.5 -8t-38 -18.5t-36 -21.5t-21.5 -16l-75 91q4 3 20.5 18t41.5 31t57 27.5t67 10.5q40 -2 73.5 -24t52.5 -55q11 -22 17 -49.5t6 -50.5q0 -12 -2 -31.5t-5 -32.5q22 7 48 16 t52.5 20t51 22.5t43.5 22.5l-7 4q-47 24 -80.5 49.5t-54.5 52t-30 51.5t-9 48q0 39 15 69q14 28 35.5 52.5t48 42t56.5 28t59 10.5q62 0 106.5 -38.5t61.5 -98.5q11 -38 11 -82q0 -33 -5 -64t-12 -57l32 -17l-38 -118l-59 17q-31 -29 -71.5 -53t-83.5 -43.5t-86 -34.5 t-78.5 -25t-61.5 -16.5t-34 -7.5zM260 2052q-19 0 -48 -14t-47 -41q-9 -12 10 -35.5t59 -43.5l72 -35q5 19 8 43t1 47.5t-12.5 43.5t-31.5 33q-9 2 -11 2z"/>
    <glyph glyph-name="uniFC5F" unicode="ﱟ" arabic-form="isolated" d="M70 1719q-34 1 -60 8.5t-45 19t-32 25.5t-21 27q-13 22 -19 47.5t-6 51.5t6 52.5t13.5 49.5t15 40t12.5 25l102 -54q-7 -12 -12.5 -27.5t-10.5 -32t-7.5 -32t-2.5 -28.5q0 -21 5 -32v1q6 -8 21 -13.5t34 -5.5q13 0 29 5.5t22 13.5q9 11 15 27t10 34t5 37t1 36l109 47 q7 -61 18 -97.5t22.5 -55t22 -23.5t18.5 -5q30 2 53.5 19t23.5 44q0 21 -10 46t-25 49.5t-32.5 47.5t-32.5 41l105 73q7 -10 23.5 -36t33.5 -61t30 -74.5t13 -77.5q0 -24 -8 -48q-12 -40 -32.5 -68t-45 -45.5t-50.5 -26t-49 -8.5q-25 0 -57 9t-61 39q-53 -64 -136 -64h-8z M512 1324l-597 -221v144l597 213v-136zM512 1583l-597 -221v144l597 213v-136z"/>
    <glyph glyph-name="uniFC60" unicode="ﱠ" arabic-form="isolated" d="M72 1121q-34 1 -60 8.5t-45 19t-32 25.5t-21 27q-13 22 -19 47.5t-6 51.5t6 52.5t13.5 49.5t15 40t12.5 25l102 -54q-7 -12 -12.5 -27.5t-10.5 -32t-7.5 -32t-2.5 -28.5q0 -21 5 -32v1q6 -8 21 -13.5t34 -5.5q13 0 29 5.5t22 13.5q9 11 15 27t10 34t5 37t1 36l109 47 q7 -61 18 -97.5t22.5 -55t22 -23.5t18.5 -5q30 2 53.5 19t23.5 44q0 21 -10 46t-25 49.5t-32.5 47.5t-32.5 41l105 73q7 -10 23.5 -36t33.5 -61t30 -74.5t13 -77.5q0 -24 -8 -48q-12 -40 -32.5 -68t-45 -45.5t-50.5 -26t-49 -8.5q-25 0 -57 9t-61 39q-53 -64 -136 -64h-8z M486 1724l-597 -221v144l597 213v-136z"/>
    <glyph glyph-name="uniFC61" unicode="ﱡ" arabic-form="isolated" d="M58 1147q-34 1 -60 8.5t-45 19t-32 25.5t-21 27q-13 22 -19 47.5t-6 51.5t6 52.5t13.5 49.5t15 40t12.5 25l102 -54q-7 -12 -12.5 -27.5t-10.5 -32t-7.5 -32t-2.5 -28.5q0 -21 5 -32v1q6 -8 21 -13.5t34 -5.5q13 0 29 5.5t22 13.5q9 11 15 27t10 34t5 37t1 36l109 47 q7 -61 18 -97.5t22.5 -55t22 -23.5t18.5 -5q30 2 53.5 19t23.5 44q0 21 -10 46t-25 49.5t-32.5 47.5t-32.5 41l105 73q7 -10 23.5 -36t33.5 -61t30 -74.5t13 -77.5q0 -24 -8 -48q-12 -40 -32.5 -68t-45 -45.5t-50.5 -26t-49 -8.5q-25 0 -57 9t-61 39q-53 -64 -136 -64h-8z M-95 1663q25 7 64.5 18t84.5 26.5t91 34.5t81 41l-62 27q-37 17 -61 39t-38.5 45t-21 48t-6.5 48q0 41 14 68q14 28 36.5 52t50 41.5t58.5 28t62 10.5q40 0 70 -15q37 -17 63.5 -48.5t38.5 -71.5q7 -22 10 -43t3 -43q0 -31 -5.5 -61.5t-12.5 -55.5l34 -8l-40 -128 q-20 5 -36 9.5t-29 8.5q-43 -36 -99.5 -68.5t-112 -57t-102 -41.5t-67.5 -24l-30 -8zM246 2065q-10 0 -24.5 -5t-28.5 -13.5t-25.5 -20.5t-19.5 -26q-1 -13 15.5 -28.5t40.5 -32t52 -30.5t51 -22q4 14 4 40.5t-5.5 53.5t-16.5 50t-31 31q-6 3 -12 3z"/>
    <glyph glyph-name="uniFC62" unicode="ﱢ" arabic-form="isolated" d="M57 1470q-34 1 -60 8.5t-45 19t-32 25.5t-21 27q-13 22 -19 47.5t-6 51.5t6 52.5t13.5 49.5t15 40t12.5 25l102 -54q-7 -12 -12.5 -27.5t-10.5 -32t-7.5 -32t-2.5 -28.5q0 -21 5 -32v1q6 -8 21 -13.5t34 -5.5q13 0 29 5.5t22 13.5q9 11 15 27t10 34t5 37t1 36l109 47 q7 -61 18 -97.5t22.5 -55t22 -23.5t18.5 -5q30 2 53.5 19t23.5 44q0 21 -10 46t-25 49.5t-32.5 47.5t-32.5 41l105 73q7 -10 23.5 -36t33.5 -61t30 -74.5t13 -77.5q0 -24 -8 -48q-12 -40 -32.5 -68t-45 -45.5t-50.5 -26t-49 -8.5q-25 0 -57 9t-61 39q-53 -64 -136 -64h-8z M512 1316l-597 -221v144l597 213v-136z"/>
    <glyph glyph-name="uniFC63" unicode="ﱣ" arabic-form="isolated" d="M90 1122q-34 1 -60 8.5t-45 19t-32 25.5t-21 27q-13 22 -19 47.5t-6 51.5t6 52.5t13.5 49.5t15 40t12.5 25l102 -54q-7 -12 -12.5 -27.5t-10.5 -32t-7.5 -32t-2.5 -28.5q0 -21 5 -32v1q6 -8 21 -13.5t34 -5.5q13 0 29 5.5t22 13.5q9 11 15 27t10 34t5 37t1 36l109 47 q7 -61 18 -97.5t22.5 -55t22 -23.5t18.5 -5q30 2 53.5 19t23.5 44q0 21 -10 46t-25 49.5t-32.5 47.5t-32.5 41l105 73q7 -10 23.5 -36t33.5 -61t30 -74.5t13 -77.5q0 -24 -8 -48q-12 -40 -32.5 -68t-45 -45.5t-50.5 -26t-49 -8.5q-25 0 -57 9t-61 39q-53 -64 -136 -64h-8z M135 1604q13 58 19 107.5t6 89.5q0 42 -6 102.5t-19 118.5l131 47q6 -28 10.5 -59.5t8 -64.5t5.5 -65.5t2 -61.5q0 -53 -5.5 -117.5t-19.5 -144.5z"/>
    <glyph glyph-name=".notdef" horiz-adv-x="1229" d="M102 -362v1806h1024v-1806h-1024zM217 -248h795v1577h-795v-1577z"/>
    <glyph glyph-name="NULL"/>
    <glyph glyph-name="nonmarkingreturn" horiz-adv-x="602"/>
    <glyph glyph-name="space" unicode=" " horiz-adv-x="650"/>
    <glyph glyph-name="space" unicode=" " horiz-adv-x="650"/>
    <glyph glyph-name="uni0640" unicode="ـ" horiz-adv-x="907" d="M-133 98q0 27 11 50t29 40.5t42 27.5t51 10h908q26 0 49.5 -10t41 -27.5t28 -40.5t10.5 -50t-10.5 -50.5t-28 -40.5t-41 -27t-49.5 -10h-909q-26 0 -50 10t-42 27t-29 40.5t-11 50.5z"/>
    <glyph glyph-name="uni066E" unicode="ٮ" horiz-adv-x="1982" d="M994 -30q-184 2 -330 23t-256 62q-218 85 -296 244v-1q-45 87 -45 192q0 49 10.5 101.5t30.5 105.5q11 28 21 50.5t20.5 42.5t22.5 40t26 45l186 -156q-17 -23 -38.5 -63t-38 -85t-23 -87.5t7.5 -70.5q22 -45 84 -79.5t154 -57.5t210.5 -35.5t253.5 -12.5q75 0 169.5 5 t194.5 19t198 38.5t179 64.5q-12 58 -33 112t-46.5 106t-54.5 102.5t-59 101.5l214 139q3 0 18.5 -30t38 -77.5t47.5 -108.5t46 -122.5t35 -119.5t14 -100q0 -61 -28 -108t-100 -92q-46 -28 -107.5 -53.5t-132 -46.5t-147 -38t-154 -28t-152 -17t-140.5 -5z"/>
    <glyph glyph-name="feh_dotless.isol" horiz-adv-x="1948" d="M984 -30q-198 2 -345 22.5t-256 60.5q-218 85 -296 244v-1q-45 87 -45 192q0 49 10.5 101.5t30.5 105.5q11 28 21 50.5t20.5 42.5t22.5 40t26 45l186 -156q-17 -23 -38.5 -63t-38 -85t-23 -87.5t7.5 -70.5q22 -45 83.5 -79.5t153.5 -57.5t210 -35.5t255 -12.5 q64 0 134.5 4.5t141 12t137 18t122 22t97 23.5t62.5 23h-102q-57 0 -111.5 7.5t-103 24t-89 42.5t-68.5 62q-25 32 -46.5 84t-21.5 129q0 40 6 79q14 81 42.5 148.5t70.5 119.5v-1q50 65 111.5 98t129.5 33q69 0 137.5 -35t124.5 -92q41 -47 74 -106.5t56.5 -127 t36.5 -140.5t13 -146q0 -21 -1 -43t-3 -42q-11 -97 -57 -168.5t-116 -121.5t-160 -81.5t-190.5 -49.5t-205.5 -24.5t-206 -7.5zM1481 897q-18 1 -40 -11t-43 -33.5t-39 -49.5t-27.5 -58.5t-9 -62t16.5 -58.5q6 -11 26.5 -19.5t47.5 -15t56 -10.5t53 -5q40 -2 84.5 -1t75.5 3 q-9 36 -25 89.5t-41 104t-58.5 87.5t-76.5 40z"/>
    <glyph glyph-name="uni06A1.fina" horiz-adv-x="2106" d="M966 -30q-312 3 -517 78.5t-302 230.5q-38 64 -54.5 133t-16.5 135q0 81 20 156v-1q12 49 25 85t24 60.5t19 38.5t11 19l193 -121q-10 -18 -23 -42.5t-24.5 -54.5t-19.5 -66t-8 -78q1 -65 26.5 -113t71 -81.5t107.5 -55.5t136.5 -35.5t157 -20.5t169.5 -11l361 7 q-21 14 -44.5 38.5t-44 59t-35 77.5t-15.5 94q-3 97 27 173t87 148q59 73 134 113.5t156 37.5t150.5 -41.5t120.5 -99.5t80 -138.5t29 -158.5q0 -77 -28.5 -150t-73.5 -136q27 -4 58.5 -8t64 -7.5t64 -6t57.5 -2.5q27 0 51 -9.5t41 -27t27 -41t10 -50.5t-10 -50.5t-27 -40.5 t-41 -27t-51 -10h-9q-32 0 -69 2t-74.5 5.5t-73 7.5t-64.5 9q-58 9 -115 22t-117 45q-20 -14 -60 -26.5t-92 -22.5t-113 -18t-123.5 -13.5t-122.5 -8t-110 -2.5zM1584 717q-26 -5 -59.5 -20t-63 -41.5t-50 -66t-20.5 -94.5q0 -18 16.5 -46.5t44 -57t63 -52.5t73.5 -34h1 l2 -1q30 15 58.5 39t50.5 52.5t35.5 59t13.5 58.5q0 39 -16.5 74t-41.5 62t-53.5 45t-53.5 23z"/>
    <glyph glyph-name="uni066F" unicode="ٯ" horiz-adv-x="1581" d="M1068 -29q-112 10 -202 48t-142 107v-1q-38 48 -60.5 104t-22.5 122q0 51 11.5 104t31 103t44.5 95t52 81v-1q54 69 119.5 105t137.5 36q155 0 283 -139q46 -51 82 -116t61 -138.5t38.5 -153.5t13.5 -161q0 -23 -0.5 -45t-1.5 -45q0 -10 -3.5 -44.5t-14.5 -85t-31 -111.5 t-53 -124h1q-41 -79 -100.5 -146t-125.5 -114q-85 -57 -191 -88.5t-224 -31.5q-103 0 -196.5 19.5t-169.5 59.5q-82 42 -146.5 99.5t-107.5 134.5v-1q-47 76 -71 165t-24 189q0 146 42.5 285.5t114.5 279.5l192 -113q-71 -133 -97.5 -243.5t-26.5 -207.5q0 -96 40 -172.5 t107.5 -129t157 -80.5t189.5 -27q98 0 178.5 29t143 79.5t106.5 120t70 152.5h-6zM1037 615q-35 0 -66.5 -23.5t-54.5 -61t-35.5 -84t-8.5 -92.5q3 -36 30 -59.5t62 -37.5t68.5 -21t50.5 -8q22 -2 50.5 -2.5t57.5 0t56 1t46 1.5q-7 100 -47.5 182.5t-94.5 150.5 q-8 10 -22 20t-30 17.5t-32.5 12t-29.5 4.5z"/>
    <glyph glyph-name="onedot.above" horiz-adv-x="1024" d="M715 1224l-191 -191l-192 192l191 191z"/>
    <glyph glyph-name="twodots.above" horiz-adv-x="1024" d="M505 1022l-170 -170l-172 171l170 171zM883 1021l-170 -171l-172 172l170 170z"/>
    <glyph glyph-name="threedots.above" horiz-adv-x="1151" d="M553 1154l-170 -170l-172 171l170 171zM931 1153l-170 -171l-172 172l170 170zM415 1443l156 156l157 -157l-156 -156z"/>
    <glyph glyph-name="threedots.below" horiz-adv-x="1057" d="M350 -417l-170 171l172 171l170 -170zM728 -415l-170 170l172 172l170 -171zM541 -377l156 -156l-157 -157l-156 156z"/>
    <glyph glyph-name="uni0660" unicode="٠" horiz-adv-x="968" d="M328 466q0 -34 13 -63.5t35 -51.5t51.5 -35t63.5 -13t63.5 13t52 35t35.5 51.5t13 63.5t-13 63.5t-35.5 52t-52 35.5t-63.5 13t-63.5 -13t-51.5 -35.5t-35 -52t-13 -63.5zM130 466q0 74 28.5 140t77 115.5t114.5 78t141 28.5q74 0 140 -28.5t115.5 -78t78 -115.5 t28.5 -140q0 -75 -28.5 -141t-78 -114.5t-115.5 -77t-140 -28.5q-75 0 -141 28.5t-114.5 77t-77 114.5t-28.5 141z"/>
    <glyph glyph-name="uni0661" unicode="١" horiz-adv-x="706" d="M283 -56q0 128 -1.5 260.5t-7.5 262t-17.5 254.5t-32 238.5t-51 213.5t-74.5 181l211 130q46 -71 77 -153.5t52.5 -174t36.5 -191t29 -202.5q10 -78 16 -169.5t9.5 -186t4.5 -186.5t1 -172v-42v-63h-253z"/>
    <glyph glyph-name="uni0662" unicode="٢" horiz-adv-x="1111" d="M1001 1501q8 -57 13.5 -110t5.5 -101q0 -94 -25.5 -184t-92.5 -175q-54 -66 -130 -99t-167 -33q-71 0 -132 15q14 -105 21.5 -218t11.5 -225.5t4.5 -220t0.5 -200.5h-253q0 163 -4 329t-16.5 323t-36.5 298.5t-64 255.5v-1q-8 19 -14.5 35.5t-12.5 32.5q-11 29 -24 59 t-38 71l212 136q16 -26 27.5 -47t20.5 -39.5t16.5 -36t15.5 -36.5l14 -34t15 -36q21 -49 42 -88t47.5 -66.5t61.5 -42t85 -13.5q62 1 95 26.5t47.5 64t16.5 85.5t2 92q0 40 -3 70t-9 69z"/>
    <glyph glyph-name="uni0663" unicode="٣" horiz-adv-x="1481" d="M1313 1489l10 -55q6 -35 11 -63.5t8.5 -54t5.5 -51t2 -54.5q0 -101 -24 -172t-67 -124q-42 -48 -92.5 -75.5t-120.5 -27.5q-25 0 -55 4.5t-61.5 16t-62.5 31.5t-57 51l-1 -1q-25 -28 -50 -50.5t-53.5 -38t-61.5 -23.5t-73 -8q-26 0 -49 2.5t-43 7.5v-6 q12 -94 19.5 -203.5t12 -222t6 -221t1.5 -200.5h-254q1 20 1.5 46t1 53.5t1 53.5t0.5 46q0 88 -2 187t-9.5 203t-21 210t-36.5 208t-56.5 196t-80.5 174l228 133q21 -35 41 -74.5t35 -74.5q18 -40 34 -81q23 -50 42 -85t38.5 -57.5t41 -32.5t49.5 -10q33 0 52.5 19t29 50.5 t12.5 71.5t5 81q0 9 -0.5 28t-2 40t-2.5 39.5t-2 27.5l240 31q1 -47 5 -83t10 -68.5t15 -64t20 -70.5h-1q10 -31 24.5 -48t28.5 -24.5t25.5 -9t15.5 -1.5q37 0 51 32.5t14 80.5q0 30 -4.5 65.5t-11.5 71t-15.5 69t-15.5 59.5z"/>
    <glyph glyph-name="uni0664" unicode="٤" horiz-adv-x="1280" d="M792 675q-82 0 -160.5 19t-144.5 61q28 -233 34.5 -430.5t6.5 -369.5h-253q0 199 -7.5 394.5t-32.5 375.5t-71.5 338t-124.5 281l213 134q33 -55 61.5 -108t51.5 -108q28 54 68 96.5t88.5 72.5t103.5 47t114 20q47 2 100.5 -5t106 -25.5t99.5 -49.5t81 -77l-143 -178 l-20 13t-52.5 28t-74 28t-84.5 14q-37 -5 -78 -22t-75 -42.5t-55 -57.5t-17 -67v1q7 -37 34 -62.5t64.5 -41.5t80.5 -23t82 -7q37 0 77.5 7t80.5 19.5t77 29t67 34.5l111 -207q-51 -38 -102.5 -63.5t-103 -40.5t-103 -21.5t-100.5 -6.5z"/>
    <glyph glyph-name="uni0665" unicode="٥" horiz-adv-x="1388" d="M921 -61q-74 0 -136 33t-104 87q-47 -54 -111 -86.5t-138 -32.5t-133.5 30.5t-103 79.5t-70.5 110t-36 122v-1q-5 25 -6.5 51t-1.5 53q0 54 7 108t19 110q18 79 47 156t72 160t99 176.5t128 205.5l-39 41l176 173q78 -73 138 -129t107 -102.5t85 -87.5t73 -84 q97 -122 165.5 -243.5t112.5 -258.5q14 -45 22 -97t8 -105q0 -86 -22 -169t-68 -148.5t-117.5 -107t-170.5 -44.5h-2zM793 512q0 -40 4.5 -95.5t18.5 -106.5t38.5 -87t65.5 -38q34 6 64 27t52 51.5t35 67t13 72.5q0 35 -5.5 71.5t-13.5 62.5q-30 89 -79 169.5t-109 154.5 t-127.5 142.5t-133.5 133.5q-51 -63 -100 -138.5t-90.5 -153t-73 -153.5t-46.5 -140q-8 -42 -13.5 -90t-5.5 -93q0 -37 11.5 -70t31.5 -57.5t46 -39t56 -14.5q16 0 35.5 8.5t38.5 26t35 43t26 60.5q11 38 18.5 71.5t12.5 59.5q5 30 7 57z"/>
    <glyph glyph-name="uni0666" unicode="٦" horiz-adv-x="1192" d="M65 24q1 4 17.5 40.5t45 94t68 129t86.5 144.5q54 84 103.5 148t108.5 108q-68 1 -128.5 28.5t-105.5 74.5t-71.5 109.5t-26.5 134.5q0 47 12 93.5t34.5 90t55 83t72.5 71.5q59 45 133.5 73t150.5 33q12 2 25.5 2.5t25.5 0.5q75 0 148.5 -26.5t147.5 -67.5l-128 -219 q-32 18 -57 29.5t-46.5 18t-40.5 9t-38 2.5q-25 0 -53.5 -4.5t-56 -12.5t-51.5 -18t-40 -20q-32 -26 -53.5 -62.5t-21.5 -77.5q0 -21 7 -43q3 -13 21.5 -25.5t46 -22.5t61 -16t67.5 -6q44 -1 93 5t99.5 16.5t101.5 24t99 27.5l92 -219l-75 -35q-89 -34 -166 -85.5 t-142.5 -113t-119 -129t-96 -133t-73.5 -125t-52 -104.5t-31.5 -72.5t-10.5 -28.5z"/>
    <glyph glyph-name="uni0667" unicode="٧" horiz-adv-x="1353" d="M543 -50q0 154 -18 292.5t-50 265t-76 241t-95.5 220t-109 204t-115.5 191.5l211 135q75 -124 134.5 -242.5t107 -235.5t84.5 -235t66 -241q36 139 80.5 282.5t92 273t94.5 235.5t88 170l210 -135q-34 -55 -70 -126t-72 -154.5t-72 -176.5t-71 -191q-80 -226 -122.5 -421 t-44.5 -352h-252z"/>
    <glyph glyph-name="uni0668" unicode="٨" horiz-adv-x="1362" d="M1071 -73q-40 64 -88.5 158t-97.5 208.5t-95 244.5t-82 265q-32 -115 -72.5 -222t-91 -214t-112 -216.5t-134.5 -228.5l-211 134q87 140 170.5 293t148.5 327t104.5 373t39.5 431l272 -5q3 -106 24.5 -232.5t57 -259.5t81 -266.5t96 -255.5t102 -225t98.5 -175z"/>
    <glyph glyph-name="uni0669" unicode="٩" horiz-adv-x="1144" d="M544 940q56 0 108 9v16l-1 9v10q-2 27 -4 49q-6 66 -19 116q-38 145 -134 145q-91 0 -143 -131q-20 -52 -23 -100t15 -66q45 -45 159 -55q21 -2 42 -2zM880 742q-1 -156 49 -365q67 -238 115 -319l-161 -143l-21 23q-79 84 -141 328q-62 230 -67 433q-309 -20 -454 135 q-99 105 -76 278q16 113 68 211q59 109 149 168q76 50 168 50q134 0 227 -95q100 -103 130 -316q11 -77 13 -215q1 -47 1 -101v-41v-17v-7v-7z"/>
    <glyph glyph-name="uni06F4" unicode="۴" horiz-adv-x="1280" d="M792 675q-82 0 -160.5 19t-144.5 61q28 -233 34.5 -430.5t6.5 -369.5h-253q0 199 -7.5 394.5t-32.5 375.5t-71.5 338t-124.5 281l213 134q33 -55 61.5 -108t51.5 -108q28 54 68 96.5t88.5 72.5t103.5 47t114 20q47 2 100.5 -5t106 -25.5t99.5 -49.5t81 -77l-143 -178 l-20 13t-52.5 28t-74 28t-84.5 14q-37 -5 -78 -22t-75 -42.5t-55 -57.5t-17 -67v1q7 -37 34 -62.5t64.5 -41.5t80.5 -23t82 -7q37 0 77.5 7t80.5 19.5t77 29t67 34.5l111 -207q-51 -38 -102.5 -63.5t-103 -40.5t-103 -21.5t-100.5 -6.5z"/>
    <glyph glyph-name="uni06F5" unicode="۵" horiz-adv-x="1388" d="M921 -61q-74 0 -136 33t-104 87q-47 -54 -111 -86.5t-138 -32.5t-133.5 30.5t-103 79.5t-70.5 110t-36 122v-1q-5 25 -6.5 51t-1.5 53q0 54 7 108t19 110q18 79 47 156t72 160t99 176.5t128 205.5l-39 41l176 173q78 -73 138 -129t107 -102.5t85 -87.5t73 -84 q97 -122 165.5 -243.5t112.5 -258.5q14 -45 22 -97t8 -105q0 -86 -22 -169t-68 -148.5t-117.5 -107t-170.5 -44.5h-2zM793 512q0 -40 4.5 -95.5t18.5 -106.5t38.5 -87t65.5 -38q34 6 64 27t52 51.5t35 67t13 72.5q0 35 -5.5 71.5t-13.5 62.5q-30 89 -79 169.5t-109 154.5 t-127.5 142.5t-133.5 133.5q-51 -63 -100 -138.5t-90.5 -153t-73 -153.5t-46.5 -140q-8 -42 -13.5 -90t-5.5 -93q0 -37 11.5 -70t31.5 -57.5t46 -39t56 -14.5q16 0 35.5 8.5t38.5 26t35 43t26 60.5q11 38 18.5 71.5t12.5 59.5q5 30 7 57z"/>
    <glyph glyph-name="uni06F6" unicode="۶" horiz-adv-x="1192" d="M65 24q1 4 17.5 40.5t45 94t68 129t86.5 144.5q54 84 103.5 148t108.5 108q-68 1 -128.5 28.5t-105.5 74.5t-71.5 109.5t-26.5 134.5q0 47 12 93.5t34.5 90t55 83t72.5 71.5q59 45 133.5 73t150.5 33q12 2 25.5 2.5t25.5 0.5q75 0 148.5 -26.5t147.5 -67.5l-128 -219 q-32 18 -57 29.5t-46.5 18t-40.5 9t-38 2.5q-25 0 -53.5 -4.5t-56 -12.5t-51.5 -18t-40 -20q-32 -26 -53.5 -62.5t-21.5 -77.5q0 -21 7 -43q3 -13 21.5 -25.5t46 -22.5t61 -16t67.5 -6q44 -1 93 5t99.5 16.5t101.5 24t99 27.5l92 -219l-75 -35q-89 -34 -166 -85.5 t-142.5 -113t-119 -129t-96 -133t-73.5 -125t-52 -104.5t-31.5 -72.5t-10.5 -28.5z"/>
    <glyph glyph-name="uni066A" unicode="٪" horiz-adv-x="1217" d="M22 -38l818 1636h287l-821 -1636h-284zM1160 207l-244 -243l-245 245l244 243zM529 1327l-244 -243l-245 245l244 243z"/>
    <glyph glyph-name="uni061F" unicode="؟" horiz-adv-x="1024" d="M577 933q108 -118 108 -335v-173h-246v173q0 123 -96 209l1 -1l-51 42q-36 30 -72.5 61t-73.5 60q-114 123 -114 301q0 180 154 307q147 120 326 120q213 0 339 -140q122 -140 122 -389h-246q0 282 -215 282q-40 0 -77 -12.5t-71 -39.5q-70 -55 -70 -127q0 -119 91 -191 v1q47 -37 93 -73t94 -71zM758 66l-191 -191l-192 192l191 191z"/>
    <glyph glyph-name="uni060C" unicode="،" horiz-adv-x="596" d="M566 149q0 -56 -47 -111q-60 -67 -154 -67q-107 0 -168 81q-54 70 -54 176q0 250 269 441q10 -7 28 -21t38 -30l40 -32t33 -26q-176 -127 -203 -234q12 2 25 3t30 1q151 -23 163 -179v-2z"/>
    <glyph glyph-name="uni061B" unicode="؛" horiz-adv-x="512" d="M404 125q0 -62 -47 -109q-46 -44 -108 -44q-64 0 -109 44q-46 46 -46 109t46 109t109 46q62 0 108 -46q47 -47 47 -109zM438 608q0 -36 -15 -68t-40 -56.5t-58 -39t-69 -14.5q-106 0 -167 81q-27 35 -42 79t-15 97q0 251 217 390q10 -7 25.5 -23t32.5 -35t34.5 -37 t30.5 -28q-35 -23 -60.5 -43t-43.5 -41t-28 -43.5t-13 -48.5q14 2 26.5 3.5t26.5 1.5q33 -1 61.5 -12.5t50 -34t34 -54.5t12.5 -74z"/>
    <glyph glyph-name="uni066B" unicode="٫" horiz-adv-x="712" d="M20 -166l499 1124h187l-498 -1124h-188z"/>
    <glyph glyph-name="uni066C" unicode="٬" horiz-adv-x="582" d="M85 156q0 38 17 71t44.5 57.5t63.5 38.5t73 15q108 2 170 -78v1q54 -69 56 -177v1q11 -300 -377 -495l-72 174q114 51 176.5 108.5t73.5 117.5q-14 -3 -27 -4t-27 -2q-166 -1 -171 171v1z"/>
    <glyph glyph-name="uni066D" unicode="٭" horiz-adv-x="990" d="M510 1128l92 -323l334 12l19 -54l-280 -188q27 -78 56.5 -158.5t56.5 -156.5l-47 -32l-262 206q-64 -51 -132.5 -104.5t-131.5 -103.5l-40 38l112 312l-276 185l15 56l334 -12l92 323h58z"/>
    <glyph glyph-name="uni064B" unicode="ً" d="M509 1312l-597 -221v144l597 213v-136zM509 1571l-597 -221v144l597 213v-136z"/>
    <glyph glyph-name="uni064D" unicode="ٍ" d="M518 -509l-597 -221v144l597 213v-136zM518 -250l-597 -221v144l597 213v-136z"/>
    <glyph glyph-name="uni064E" unicode="َ" d="M513 1401l-597 -221v144l597 213v-136z"/>
    <glyph glyph-name="uni064F" unicode="ُ" d="M-94 1167q25 7 64.5 18t84.5 26.5t91 34.5t81 41l-62 27q-37 17 -61 39t-38.5 45t-21 48t-6.5 48q0 41 14 68q14 28 36.5 52t50 41.5t58.5 28t62 10.5q40 0 70 -15q37 -17 63.5 -48.5t38.5 -71.5q7 -22 10 -43t3 -43q0 -31 -5.5 -61.5t-12.5 -55.5l34 -8l-40 -128 q-20 5 -36 9.5t-29 8.5q-43 -36 -99.5 -68.5t-112 -57t-102 -41.5t-67.5 -24l-30 -8zM247 1569q-10 0 -24.5 -5t-28.5 -13.5t-25.5 -20.5t-19.5 -26q-1 -13 15.5 -28.5t40.5 -32t52 -30.5t51 -22q4 14 4 40.5t-5.5 53.5t-16.5 50t-31 31q-6 3 -12 3z"/>
    <glyph glyph-name="uni064C" unicode="ٌ" d="M-64 1158l15 24t20.5 34t18.5 36.5t8 33.5q0 12 -1 22t-6 17q-2 5 -10 11t-17 7q-11 0 -29.5 -8t-38 -18.5t-36 -21.5t-21.5 -16l-75 91q4 3 20.5 18t41.5 31t57 27.5t67 10.5q40 -2 73.5 -24t52.5 -55q11 -22 17 -49.5t6 -50.5q0 -12 -2 -31.5t-5 -32.5q22 7 48 16 t52.5 20t51 22.5t43.5 22.5l-7 4q-47 24 -80.5 49.5t-54.5 52t-30 51.5t-9 48q0 39 15 69q14 28 35.5 52.5t48 42t56.5 28t59 10.5q62 0 106.5 -38.5t61.5 -98.5q11 -38 11 -82q0 -33 -5 -64t-12 -57l32 -17l-38 -118l-59 17q-31 -29 -71.5 -53t-83.5 -43.5t-86 -34.5 t-78.5 -25t-61.5 -16.5t-34 -7.5zM313 1577q-19 0 -48 -14t-47 -41q-9 -12 10 -35.5t59 -43.5l72 -35q5 19 8 43t1 47.5t-12.5 43.5t-31.5 33q-9 2 -11 2z"/>
    <glyph glyph-name="uni0650" unicode="ِ" d="M526 -361l-597 -221v144l597 213v-136z"/>
    <glyph glyph-name="uni0651" unicode="ّ" d="M70 1122q-34 1 -60 8.5t-45 19t-32 25.5t-21 27q-13 22 -19 47.5t-6 51.5t6 52.5t13.5 49.5t15 40t12.5 25l102 -54q-7 -12 -12.5 -27.5t-10.5 -32t-7.5 -32t-2.5 -28.5q0 -21 5 -32v1q6 -8 21 -13.5t34 -5.5q13 0 29 5.5t22 13.5q9 11 15 27t10 34t5 37t1 36l109 47 q7 -61 18 -97.5t22.5 -55t22 -23.5t18.5 -5q30 2 53.5 19t23.5 44q0 21 -10 46t-25 49.5t-32.5 47.5t-32.5 41l105 73q7 -10 23.5 -36t33.5 -61t30 -74.5t13 -77.5q0 -24 -8 -48q-12 -40 -32.5 -68t-45 -45.5t-50.5 -26t-49 -8.5q-25 0 -57 9t-61 39q-53 -64 -136 -64h-8z "/>
    <glyph glyph-name="uni0652" unicode="ْ" d="M246 1231q25 0 43.5 9.5t31 23.5t19 31.5t6.5 34.5q0 16 -7 33t-20 31.5t-31.5 23.5t-41.5 9q-24 0 -42.5 -9t-31 -23.5t-19 -31.5t-6.5 -33q0 -17 6.5 -34.5t19 -31.5t31 -23.5t42.5 -9.5zM246 1564q44 1 83.5 -19.5t69 -54.5t46.5 -76t17 -84t-17.5 -84t-47 -75.5 t-68.5 -54.5t-83 -21t-83.5 20.5t-69 54t-47 75.5t-17.5 85q0 42 17 84t46.5 76t69 54.5t84.5 19.5z"/>
    <glyph glyph-name="uni0653" unicode="ٓ" d="M-214 1291q0 15 3 21q2 6 6.5 18.5t10.5 26.5t13 29.5t14 27.5q34 53 79.5 85.5t91.5 42.5q10 2 23.5 2.5t22.5 0.5q46 0 83 -11t69 -25h-1q26 -11 51.5 -24t54.5 -14q21 -1 43 13t41.5 33.5t34 38t20.5 26.5l135 -87q-1 -3 -11 -17.5t-27.5 -35t-42.5 -44t-55.5 -43 t-66.5 -32t-76 -11.5q-43 1 -79 11.5t-67 21.5l-16 6h1q-15 6 -28.5 13t-27 13t-27 9t-27.5 1q-27 -2 -42.5 -20.5t-24.5 -42t-13.5 -46.5t-8.5 -35z"/>
    <glyph glyph-name="uni0654" unicode="ٔ" d="M384 1791q-16 1 -33 3q-15 2 -33 3t-36 1q-29 0 -57 -9h1q-14 -6 -29 -16.5t-27.5 -23t-20.5 -27t-8 -28.5q0 -12 6 -30v1q6 -15 21 -27.5t34.5 -21.5t41 -14t40.5 -5q8 0 16.5 1t16.5 4q27 9 53.5 22.5t48.5 27.5q26 16 49 33l77 -102q-48 -37 -109.5 -71.5 t-146.5 -80.5l-240 -133l-62 113l167 93q-34 20 -61 50t-42 65q-15 36 -15 80q0 33 11 64t30 58.5t45 49t56 35.5q25 11 51 15.5t53 4.5q23 0 47.5 -3.5t44.5 -8.5q24 -5 46 -12z"/>
    <glyph glyph-name="uni0655" unicode="ٕ" d="M466 15q-16 1 -33 3q-15 2 -33 3t-36 1q-29 0 -57 -9h1q-14 -6 -29 -16.5t-27.5 -23t-20.5 -27t-8 -28.5q0 -12 6 -30v1q6 -15 21 -27.5t34.5 -21.5t41 -14t40.5 -5q8 0 16.5 1t16.5 4q27 9 53.5 22.5t48.5 27.5q26 16 49 33l77 -102q-48 -37 -109.5 -71.5t-146.5 -80.5 l-240 -133l-62 113l167 93q-34 20 -61 50t-42 65q-15 36 -15 80q0 33 11 64t30 58.5t45 49t56 35.5q25 11 51 15.5t53 4.5q23 0 47.5 -3.5t44.5 -8.5q24 -5 46 -12z"/>
    <glyph glyph-name="uni0670" unicode="ٰ" d="M-40 1126q13 58 19 107.5t6 89.5q0 42 -6 102.5t-19 118.5l131 47q6 -28 10.5 -59.5t8 -64.5t5.5 -65.5t2 -61.5q0 -53 -5.5 -117.5t-19.5 -144.5z"/>
    <glyph glyph-name="uni0656" unicode="ٖ" d="M-48 -665q13 58 19 107.5t6 89.5q0 42 -6 102.5t-19 118.5l131 47q6 -28 10.5 -59.5t8 -64.5t5.5 -65.5t2 -61.5q0 -53 -5.5 -117.5t-19.5 -144.5z"/>
    <glyph glyph-name="uni0615" unicode="ؕ" d="M156 815q-15 0 -29.5 0.5t-28.5 1.5q-132 6 -290 67l43 107q35 -14 62 -23t51 -15q12 15 22.5 31.5t22.5 33.5l1 1q5 37 8.5 67t3.5 59q0 26 -2 56t-5 69q-4 46 -8 86.5t-8 69.5q-4 34 -9 63l116 32q8 -93 19 -184t12 -188q92 79 180 94q33 5 70 -3t68.5 -27.5t53 -49.5 t25.5 -69q2 -24 -3.5 -48.5t-15.5 -46.5t-22.5 -41.5t-25.5 -32.5q-40 -36 -81 -57.5t-80.5 -33t-77.5 -15.5t-72 -4zM73 932q23 -1 38 -1h29q26 0 62 3t74 11.5t74.5 23.5t63.5 39q14 14 22.5 31.5t8.5 31.5q0 13 -10 25.5t-25.5 20.5t-35.5 11.5t-39 0.5t-45 -14.5 t-55 -29.5t-58.5 -42t-55.5 -52q-9 -11 -19 -22t-18 -22z"/>
    <glyph glyph-name="wasla" d="M302 1510q19 16 20 39q1 14 -9 25q-20 21 -59 21q-12 0 -25 -2v0q-50 -10 -92 -45l-6 -6q-42 -41 -63 -73q20 -1 40 -1q39 0 78 5q82 10 116 37zM412 1596q7 -22 7 -45q-2 -52 -23 -86q-24 -39 -69 -65q-78 -45 -208 -47h-11q-37 0 -84 4q-25 2 -45 9q-28 10 -46 26 q-10 9 -20 21q-7 8 -15 19q-4 5 -16 5q-8 0 -18 -2q-20 -6 -43 -22q-17 -11 -39 -31l-9 -8l-36 108q-3 8 29 23q8 3 18 8q4 1 7 3q3 1 4 1q17 7 31 12q18 6 33 10q13 3 25 3q22 0 46 -10q16 -7 39 -22q102 176 238 195q20 5 41 5q52 0 95 -28q43 -27 64 -73l2 -5q3 -7 3 -8z "/>
    <glyph glyph-name="beh_dotless_alt.init" horiz-adv-x="843" d="M-128 98q0 27 10 50.5t27.5 40.5t40.5 27t50 10h111h48q49 0 104 3.5t105.5 14t91.5 29t61 47.5q15 22 15.5 59t-10 81t-28 92.5t-37.5 94t-39.5 86t-32.5 68.5l233 115q27 -48 53.5 -115.5t46.5 -139.5t32.5 -142t12.5 -124q0 -97 -33 -173q-38 -88 -107 -144.5 t-164 -84.5q-29 -8 -72.5 -12.5t-88.5 -7t-85.5 -3t-62.5 -0.5h-145h-9q-27 0 -50 10t-40.5 27t-27.5 40.5t-10 50.5z"/>
    <glyph glyph-name="beh_dotless_alt.medi" horiz-adv-x="852" d="M-135 98q0 27 10 50.5t27 40.5t40.5 27t50.5 10h76q78 0 149.5 7t127 29.5t89 64t36.5 109.5q1 27 -2 53t-9.5 55.5t-16.5 64.5t-23 81l245 69q13 -48 21 -87.5t13 -76t8.5 -74.5t7.5 -84q3 -34 9 -71.5t20.5 -68.5t40 -51t67.5 -20q27 0 50.5 -10t41 -27t27.5 -40.5 t10 -50.5t-10.5 -50.5t-28 -40.5t-40.5 -27t-49 -10q-98 0 -165.5 32t-113.5 83q-42 -32 -99.5 -54t-124.5 -35.5t-139 -19.5t-142 -6h-76q-27 0 -50.5 10t-40.5 27t-27 40.5t-10 50.5z"/>
    <glyph glyph-name="onedot.below" horiz-adv-x="1024" d="M632 -358l-191 -191l-192 192l191 191z"/>
    <glyph glyph-name="twodots.below" horiz-adv-x="1024" d="M493 -366l-170 -170l-172 171l170 171zM871 -367l-170 -171l-172 172l170 170z"/>
    <glyph glyph-name="alef_alt.isol" horiz-adv-x="509" d="M385 1413q42 -296 44 -617q2 -515 -7 -780l-262 -39q22 409 10 711q-16 402 -42 644z"/>
    <glyph glyph-name="alef_alt.fina" horiz-adv-x="640" d="M638 -30q-116 0 -199 28.5t-143 86.5q-36 36 -55.5 77.5t-28.5 81t-10.5 75t-1.5 61.5q1 32 2.5 106t1.5 179q0 94 -1 200t-4.5 209.5t-11.5 197t-22 163.5l251 75q11 -58 19 -134t13 -161.5t8 -175.5t3 -177q0 -26 0.5 -55t1 -57.5t0.5 -55.5v-49q0 -38 -0.5 -71.5 t-1 -64.5t-1 -61t-0.5 -61q-1 -38 2 -71.5t20 -49.5q36 -38 149 -39h9q26 0 49.5 -10.5t41 -28t28 -41t10.5 -49.5q0 -27 -10.5 -50.5t-28 -40.5t-41 -27t-49.5 -10z"/>
    <glyph glyph-name="uni06D5" unicode="ە" horiz-adv-x="983" d="M485 -30q-5 0 -26 1t-51.5 6t-69 15t-77.5 29q-104 48 -158 131t-54 195q0 190 170 396q29 34 52.5 58.5t43.5 44.5q-14 11 -26 21t-20 18l-18 15l162 198q40 -31 104 -89t155 -157q251 -286 251 -505q0 -109 -52.5 -193t-143.5 -132q-33 -16 -68 -26t-67 -16t-60 -8 t-47 -2zM698 347q0 28 -19 71t-51 92t-73.5 99t-86.5 93q-29 -29 -62 -73t-61.5 -93.5t-47.5 -99t-19 -89.5q0 -33 21.5 -55.5t53.5 -36.5t67.5 -20t64.5 -6q35 0 73 5t69 18.5t51 36.5t20 58z"/>
    <glyph glyph-name="heh_ae.fina" horiz-adv-x="1090" d="M544 110q-134 0 -230 35.5t-152 100.5q-32 41 -46 88.5t-14 90.5q0 38 6.5 69t15.5 53q40 84 100.5 146.5t125.5 108t128 75.5t109 48q-5 38 -7.5 76t-5.5 76l253 54q1 -9 4 -39.5t7.5 -72.5t9.5 -89.5t9 -89t7.5 -72t4.5 -37.5q15 -128 27.5 -209t22 -128t15.5 -67 t9 -26q10 -22 22.5 -36.5t30 -23t41 -12t53.5 -3.5q26 0 49.5 -10t41 -27t28 -40.5t10.5 -50.5t-10.5 -50t-28 -40.5t-41 -27.5t-49.5 -10q-41 0 -96.5 7t-111.5 33q-40 19 -72.5 46.5t-60.5 69.5q-56 -8 -107 -12t-98 -4zM660 373q-5 27 -10 64t-10 80.5t-10.5 90.5 t-11.5 94q-26 -11 -58 -28t-66 -38.5t-66.5 -45.5t-57.5 -49.5t-40.5 -51.5t-15.5 -50q0 -22 22 -36.5t55.5 -23t73 -12t73.5 -3.5q32 0 64 2.5t58 6.5z"/>
    <glyph glyph-name="uni06C2" unicode="ۂ" horiz-adv-x="1379" d="M1380 226q26 0 49.5 -10t41 -27.5t27.5 -41t10 -49.5t-10 -49.5t-27.5 -41t-41 -27.5t-49.5 -10h-6q-2 0 -2.5 0.5t-2.5 0.5q-78 1 -140.5 25.5t-115.5 64t-99 89.5t-90 101l-37 45v-1q-27 32 -53.5 63t-54.5 55t-57.5 39t-62.5 15q-31 0 -71 -12q-42 -17 -77 -54.5 t-64 -89t-52 -113t-42 -126.5q-34 9 -64 17t-58.5 15.5t-58 15.5t-61.5 17q27 92 62 177t83.5 155.5t112 122.5t146.5 78q41 12 76 17.5t68 5.5q78 0 141.5 -24t118 -63.5t101.5 -89.5t92 -102v1q28 -33 59.5 -66.5t64.5 -60t67.5 -44t68.5 -18.5h8v0zM622 1161q-16 4 -33 8 q-15 3 -33 6t-36 3q-29 0 -57 -9h1q-14 -6 -28.5 -15.5t-26 -21.5t-19 -25.5t-7.5 -27.5q0 -12 6 -30v1q6 -15 20.5 -28.5t33 -23.5t39.5 -15.5t40 -5.5q8 0 16.5 1t16.5 4q27 9 53.5 22.5t48.5 27.5q26 16 49 33l77 -102q-48 -37 -109.5 -71.5t-146.5 -80.5l-240 -133 l-62 113l167 93q-34 20 -61 50t-42 65q-15 36 -15 80q0 33 11 64t30 58.5t45 49t56 35.5q25 11 51 15.5t53 4.5q23 0 47.5 -3.5t44.5 -8.5q24 -5 46 -12z"/>
    <glyph glyph-name="uni06C3" unicode="ۃ" horiz-adv-x="1543" d="M1542 226q26 0 49.5 -10t41 -27.5t27.5 -41t10 -49.5t-10 -49.5t-27.5 -41t-41 -27.5t-49.5 -10h-6q-2 0 -2.5 0.5t-2.5 0.5q-78 1 -140.5 25.5t-115.5 64t-99 89.5t-90 101l-37 45v-1q-27 32 -53.5 63t-54.5 55t-57.5 39t-62.5 15q-31 0 -71 -12q-42 -17 -77 -54.5 t-64 -89t-52 -113t-42 -126.5q-34 9 -64 17t-58.5 15.5t-58 15.5t-61.5 17q27 92 62 177t83.5 155.5t112 122.5t146.5 78q41 12 76 17.5t68 5.5q78 0 141.5 -24t118 -63.5t101.5 -89.5t92 -102v1q28 -33 59.5 -66.5t64.5 -60t67.5 -44t68.5 -18.5h8v0zM729 1034l-170 -170 l-172 171l170 171zM1107 1033l-170 -171l-172 172l170 170z"/>
    <glyph glyph-name="uni06F0" unicode="۰" horiz-adv-x="980" d="M328 486q0 -34 13 -63.5t35 -51.5t51.5 -35t63.5 -13t63.5 13t52 35t35.5 51.5t13 63.5t-13 63.5t-35.5 52t-52 35.5t-63.5 13t-63.5 -13t-51.5 -35.5t-35 -52t-13 -63.5zM130 486q0 74 28.5 140t77 115.5t114.5 78t141 28.5q74 0 140 -28.5t115.5 -78t78 -115.5 t28.5 -140q0 -75 -28.5 -141t-78 -114.5t-115.5 -77t-140 -28.5q-75 0 -141 28.5t-114.5 77t-77 114.5t-28.5 141z"/>
    <glyph glyph-name="uni06F1" unicode="۱" horiz-adv-x="741" d="M283 -56q0 128 -1.5 260.5t-7.5 262t-17.5 254.5t-32 238.5t-51 213.5t-74.5 181l211 130q46 -71 77 -153.5t52.5 -174t36.5 -191t29 -202.5q10 -78 16 -169.5t9.5 -186t4.5 -186.5t1 -172v-42v-63h-253z"/>
    <glyph glyph-name="uni06F2" unicode="۲" horiz-adv-x="1141" d="M1001 1501q8 -57 13.5 -110t5.5 -101q0 -94 -25.5 -184t-92.5 -175q-54 -66 -130 -99t-167 -33q-71 0 -132 15q14 -105 21.5 -218t11.5 -225.5t4.5 -220t0.5 -200.5h-253q0 163 -4 329t-16.5 323t-36.5 298.5t-64 255.5v-1q-8 19 -14.5 35.5t-12.5 32.5q-11 29 -24 59 t-38 71l212 136q16 -26 27.5 -47t20.5 -39.5t16.5 -36t15.5 -36.5l14 -34t15 -36q21 -49 42 -88t47.5 -66.5t61.5 -42t85 -13.5q62 1 95 26.5t47.5 64t16.5 85.5t2 92q0 40 -3 70t-9 69z"/>
    <glyph glyph-name="uni06F3" unicode="۳" horiz-adv-x="1473" d="M1313 1489l10 -55q6 -35 11 -63.5t8.5 -54t5.5 -51t2 -54.5q0 -101 -24 -172t-67 -124q-42 -48 -92.5 -75.5t-120.5 -27.5q-25 0 -55 4.5t-61.5 16t-62.5 31.5t-57 51l-1 -1q-25 -28 -50 -50.5t-53.5 -38t-61.5 -23.5t-73 -8q-26 0 -49 2.5t-43 7.5v-6 q12 -94 19.5 -203.5t12 -222t6 -221t1.5 -200.5h-254q1 20 1.5 46t1 53.5t1 53.5t0.5 46q0 88 -2 187t-9.5 203t-21 210t-36.5 208t-56.5 196t-80.5 174l228 133q21 -35 41 -74.5t35 -74.5q18 -40 34 -81q23 -50 42 -85t38.5 -57.5t41 -32.5t49.5 -10q33 0 52.5 19t29 50.5 t12.5 71.5t5 81q0 9 -0.5 28t-2 40t-2.5 39.5t-2 27.5l240 31q1 -47 5 -83t10 -68.5t15 -64t20 -70.5h-1q10 -31 24.5 -48t28.5 -24.5t25.5 -9t15.5 -1.5q37 0 51 32.5t14 80.5q0 30 -4.5 65.5t-11.5 71t-15.5 69t-15.5 59.5z"/>
    <glyph glyph-name="uni06F9" unicode="۹" horiz-adv-x="1251" d="M568 940q56 0 108 9v16l-1 9v10q-2 27 -4 49q-6 66 -19 116q-38 145 -134 145q-91 0 -143 -131q-20 -52 -23 -100t15 -66q45 -45 159 -55q21 -2 42 -2zM904 742q-1 -156 49 -365q67 -238 115 -319l-161 -143l-21 23q-79 84 -141 328q-62 230 -67 433q-309 -20 -454 135 q-99 105 -76 278q16 113 68 211q59 109 149 168q76 50 168 50q134 0 227 -95q100 -103 130 -316q11 -77 13 -215q1 -47 1 -101v-41v-17v-7v-7z"/>
    <glyph glyph-name="uni06F7" unicode="۷" horiz-adv-x="1328" d="M543 -50q0 154 -18 292.5t-50 265t-76 241t-95.5 220t-109 204t-115.5 191.5l211 135q75 -124 134.5 -242.5t107 -235.5t84.5 -235t66 -241q36 139 80.5 282.5t92 273t94.5 235.5t88 170l210 -135q-34 -55 -70 -126t-72 -154.5t-72 -176.5t-71 -191q-80 -226 -122.5 -421 t-44.5 -352h-252z"/>
    <glyph glyph-name="uni06F8" unicode="۸" horiz-adv-x="1345" d="M1071 -73q-40 64 -88.5 158t-97.5 208.5t-95 244.5t-82 265q-32 -115 -72.5 -222t-91 -214t-112 -216.5t-134.5 -228.5l-211 134q87 140 170.5 293t148.5 327t104.5 373t39.5 431l272 -5q3 -106 24.5 -232.5t57 -259.5t81 -266.5t96 -255.5t102 -225t98.5 -175z"/>
    <glyph glyph-name="uni06F4.urdu" horiz-adv-x="1268" d="M1173 1258q-72 -62 -139 -139q-29 -33 -59 -72.5t-59 -84.5t-55 -95.5t-46 -105.5l-162 -51q-41 192 -117 303q-17 25 -39.5 48t-45.5 40.5t-44.5 27t-36.5 6.5q-23 -4 -32.5 -23t-9.5 -40q0 -48 40.5 -139t106.5 -224l88 -181q37 -81 64 -159.5t45.5 -148.5t28 -130 t11.5 -105l-209 -57q-17 109 -47 217t-72 208q-42 97 -82 188.5t-82 182.5q-15 34 -30.5 74.5t-28 83.5t-20 87t-7.5 85q0 40 7 78.5t23.5 73t43 64.5t64.5 54v-1q23 14 66.5 27t95.5 13q51 0 103.5 -16.5t96.5 -60.5q17 -17 33 -41t30.5 -52t28 -57t25.5 -55q25 45 59.5 97 t73.5 100.5t79.5 88t76.5 59.5z"/>
    <glyph glyph-name="uni06F7.urdu" horiz-adv-x="1064" d="M937 10q-31 -9 -59 -17q-24 -7 -49.5 -13t-42.5 -8l1 1q-32 -6 -71.5 -10.5t-84 -7t-92 -4t-93.5 -1.5q-44 0 -84 3t-92 9q-54 5 -102 12.5t-80 17.5q-12 51 -19 101t-7 96q0 100 36 201.5t99 207.5q31 52 70.5 113t91 133t117 156t148.5 182q21 26 44.5 53t45 52.5 t40.5 46.5t32 35q17 -18 41.5 -46.5t47.5 -55.5q26 -32 54 -65q-26 -32 -50 -62q-21 -26 -43 -53t-36 -44l-240 -312q-69 -90 -118.5 -167t-82.5 -139.5t-50 -110t-22 -78.5q14 -3 32.5 -5.5t32.5 -4.5q2 0 5 -0.5t5 -0.5q27 -4 47 -6.5t39 -4t37.5 -2t42.5 -0.5 q95 0 189 11.5t185 25.5z"/>
    <glyph glyph-name="Ghunna_above" d="M6 794q-53 0 -100 17t-82 46q-31 29 -53 70t-30 86q-3 21 -3 49q0 36 6 62t14 51l10 34q2 9 4 15.5t5.5 14t9.5 16t16 20.5l115 -43q-9 -13 -18 -32.5t-15.5 -42.5t-11 -48t-4.5 -48q0 -4 0.5 -12t1.5 -14q3 -10 14 -23.5t30 -26.5t44.5 -22t57.5 -10h-2q33 2 65.5 7.5 t58 19.5t41.5 38.5t16 64.5q0 27 -13 57t-28.5 55t-29.5 41.5t-16 16.5l122 112q3 -3 17.5 -29.5t31.5 -66.5t30.5 -89t13.5 -97q0 -26 -3.5 -52t-12.5 -53q-13 -38 -38.5 -71.5t-60.5 -56.5q-37 -24 -85 -39t-104 -17h-14v0z"/>
    <glyph glyph-name="uni0651064B" d="M70 1159q-34 1 -60 8.5t-45 19t-32 25.5t-21 27q-13 22 -19 47.5t-6 51.5t6 52.5t13.5 49.5t15 40t12.5 25l102 -54q-7 -12 -12.5 -27.5t-10.5 -32t-7.5 -32t-2.5 -28.5q0 -21 5 -32v1q6 -8 21 -13.5t34 -5.5q13 0 29 5.5t22 13.5q9 11 15 27t10 34t5 37t1 36l109 47 q7 -61 18 -97.5t22.5 -55t22 -23.5t18.5 -5q30 2 53.5 19t23.5 44q0 21 -10 46t-25 49.5t-32.5 47.5t-32.5 41l105 73q7 -10 23.5 -36t33.5 -61t30 -74.5t13 -77.5q0 -24 -8 -48q-12 -40 -32.5 -68t-45 -45.5t-50.5 -26t-49 -8.5q-25 0 -57 9t-61 39q-53 -64 -136 -64h-8z M479 1784l-597 -221v144l597 213v-136zM479 2043l-597 -221v144l597 213v-136z"/>
    <glyph glyph-name="uni0654064B" d="M341 1586q-16 1 -33 3q-15 2 -33 3t-36 1q-29 0 -57 -9h1q-14 -6 -29 -16.5t-27.5 -23t-20.5 -27t-8 -28.5q0 -12 6 -30v1q6 -15 21 -27.5t34.5 -21.5t41 -14t40.5 -5q8 0 16.5 1t16.5 4q27 9 53.5 22.5t48.5 27.5q26 16 49 33l77 -102q-48 -37 -109.5 -71.5 t-146.5 -80.5l-240 -133l-62 113l167 93q-34 20 -61 50t-42 65q-15 36 -15 80q0 33 11 64t30 58.5t45 49t56 35.5q25 11 51 15.5t53 4.5q23 0 47.5 -3.5t44.5 -8.5q24 -5 46 -12zM459 1961l-597 -221v144l597 213v-136zM459 2220l-597 -221v144l597 213v-136z"/>
    <glyph glyph-name="uni0654064E" d="M316 1603q-16 1 -33 3q-15 2 -33 3t-36 1q-29 0 -57 -9h1q-14 -6 -29 -16.5t-27.5 -23t-20.5 -27t-8 -28.5q0 -12 6 -30v1q6 -15 21 -27.5t34.5 -21.5t41 -14t40.5 -5q8 0 16.5 1t16.5 4q27 9 53.5 22.5t48.5 27.5q26 16 49 33l77 -102q-48 -37 -109.5 -71.5 t-146.5 -80.5l-240 -133l-62 113l167 93q-34 20 -61 50t-42 65q-15 36 -15 80q0 33 11 64t30 58.5t45 49t56 35.5q25 11 51 15.5t53 4.5q23 0 47.5 -3.5t44.5 -8.5q24 -5 46 -12zM448 1974l-597 -221v144l597 213v-136z"/>
    <glyph glyph-name="uni0654064C" d="M333 1587q-16 1 -33 3q-15 2 -33 3t-36 1q-29 0 -57 -9h1q-14 -6 -29 -16.5t-27.5 -23t-20.5 -27t-8 -28.5q0 -12 6 -30v1q6 -15 21 -27.5t34.5 -21.5t41 -14t40.5 -5q8 0 16.5 1t16.5 4q27 9 53.5 22.5t48.5 27.5q26 16 49 33l77 -102q-48 -37 -109.5 -71.5 t-146.5 -80.5l-240 -133l-62 113l167 93q-34 20 -61 50t-42 65q-15 36 -15 80q0 33 11 64t30 58.5t45 49t56 35.5q25 11 51 15.5t53 4.5q23 0 47.5 -3.5t44.5 -8.5q24 -5 46 -12zM-136 1842l15 24t20.5 34t18.5 36.5t8 33.5q0 12 -1 22t-6 17q-2 5 -10 11t-17 7 q-11 0 -29.5 -8t-38 -18.5t-36 -21.5t-21.5 -16l-75 91q4 3 20.5 18t41.5 31t57 27.5t67 10.5q40 -2 73.5 -24t52.5 -55q11 -22 17 -49.5t6 -50.5q0 -12 -2 -31.5t-5 -32.5q22 7 48 16t52.5 20t51 22.5t43.5 22.5l-7 4q-47 24 -80.5 49.5t-54.5 52t-30 51.5t-9 48 q0 39 15 69q14 28 35.5 52.5t48 42t56.5 28t59 10.5q62 0 106.5 -38.5t61.5 -98.5q11 -38 11 -82q0 -33 -5 -64t-12 -57l32 -17l-38 -118l-59 17q-31 -29 -71.5 -53t-83.5 -43.5t-86 -34.5t-78.5 -25t-61.5 -16.5t-34 -7.5zM241 2261q-19 0 -48 -14t-47 -41q-9 -12 10 -35.5 t59 -43.5l72 -35q5 19 8 43t1 47.5t-12.5 43.5t-31.5 33q-9 2 -11 2z"/>
    <glyph glyph-name="uni0654064F" d="M273 1604q-16 1 -33 3q-15 2 -33 3t-36 1q-29 0 -57 -9h1q-14 -6 -29 -16.5t-27.5 -23t-20.5 -27t-8 -28.5q0 -12 6 -30v1q6 -15 21 -27.5t34.5 -21.5t41 -14t40.5 -5q8 0 16.5 1t16.5 4q27 9 53.5 22.5t48.5 27.5q26 16 49 33l77 -102q-48 -37 -109.5 -71.5 t-146.5 -80.5l-240 -133l-62 113l167 93q-34 20 -61 50t-42 65q-15 36 -15 80q0 33 11 64t30 58.5t45 49t56 35.5q25 11 51 15.5t53 4.5q23 0 47.5 -3.5t44.5 -8.5q24 -5 46 -12zM-192 1862q25 7 64.5 18t84.5 26.5t91 34.5t81 41l-62 27q-37 17 -61 39t-38.5 45t-21 48 t-6.5 48q0 41 14 68q14 28 36.5 52t50 41.5t58.5 28t62 10.5q40 0 70 -15q37 -17 63.5 -48.5t38.5 -71.5q7 -22 10 -43t3 -43q0 -31 -5.5 -61.5t-12.5 -55.5l34 -8l-40 -128q-20 5 -36 9.5t-29 8.5q-43 -36 -99.5 -68.5t-112 -57t-102 -41.5t-67.5 -24l-30 -8zM149 2264 q-10 0 -24.5 -5t-28.5 -13.5t-25.5 -20.5t-19.5 -26q-1 -13 15.5 -28.5t40.5 -32t52 -30.5t51 -22q4 14 4 40.5t-5.5 53.5t-16.5 50t-31 31q-6 3 -12 3z"/>
    <glyph glyph-name="uni06540652" d="M333 1621q-16 1 -33 3q-15 2 -33 3t-36 1q-29 0 -57 -9h1q-14 -6 -29 -16.5t-27.5 -23t-20.5 -27t-8 -28.5q0 -12 6 -30v1q6 -15 21 -27.5t34.5 -21.5t41 -14t40.5 -5q8 0 16.5 1t16.5 4q27 9 53.5 22.5t48.5 27.5q26 16 49 33l77 -102q-48 -37 -109.5 -71.5 t-146.5 -80.5l-240 -133l-62 113l167 93q-34 20 -61 50t-42 65q-15 36 -15 80q0 33 11 64t30 58.5t45 49t56 35.5q25 11 51 15.5t53 4.5q23 0 47.5 -3.5t44.5 -8.5q24 -5 46 -12zM197 2012q25 0 43.5 9.5t31 23.5t19 31.5t6.5 34.5q0 16 -7 33t-20 31.5t-31.5 23.5t-41.5 9 q-24 0 -42.5 -9t-31 -23.5t-19 -31.5t-6.5 -33q0 -17 6.5 -34.5t19 -31.5t31 -23.5t42.5 -9.5zM197 2345q44 1 83.5 -19.5t69 -54.5t46.5 -76t17 -84t-17.5 -84t-47 -75.5t-68.5 -54.5t-83 -21t-83.5 20.5t-69 54t-47 75.5t-17.5 85q0 42 17 84t46.5 76t69 54.5t84.5 19.5z "/>
    <glyph glyph-name="uni0655064D" d="M466 -39q-16 1 -33 3q-15 2 -33 3t-36 1q-29 0 -57 -9h1q-14 -6 -29 -16.5t-27.5 -23t-20.5 -27t-8 -28.5q0 -12 6 -30v1q6 -15 21 -27.5t34.5 -21.5t41 -14t40.5 -5q8 0 16.5 1t16.5 4q27 9 53.5 22.5t48.5 27.5q26 16 49 33l77 -102q-48 -37 -109.5 -71.5t-146.5 -80.5 l-240 -133l-62 113l167 93q-34 20 -61 50t-42 65q-15 36 -15 80q0 33 11 64t30 58.5t45 49t56 35.5q25 11 51 15.5t53 4.5q23 0 47.5 -3.5t44.5 -8.5q24 -5 46 -12zM662 -819l-597 -221v144l597 213v-136zM662 -560l-597 -221v144l597 213v-136z"/>
    <glyph glyph-name="uni06550650" d="M460 -40q-16 1 -33 3q-15 2 -33 3t-36 1q-29 0 -57 -9h1q-14 -6 -29 -16.5t-27.5 -23t-20.5 -27t-8 -28.5q0 -12 6 -30v1q6 -15 21 -27.5t34.5 -21.5t41 -14t40.5 -5q8 0 16.5 1t16.5 4q27 9 53.5 22.5t48.5 27.5q26 16 49 33l77 -102q-48 -37 -109.5 -71.5t-146.5 -80.5 l-240 -133l-62 113l167 93q-34 20 -61 50t-42 65q-15 36 -15 80q0 33 11 64t30 58.5t45 49t56 35.5q25 11 51 15.5t53 4.5q23 0 47.5 -3.5t44.5 -8.5q24 -5 46 -12zM696 -582l-597 -221v144l597 213v-136z"/>
    <glyph glyph-name="diagonal" horiz-adv-x="1024" d="M905 1722l-804 -340l7 128l750 313z"/>
    <glyph glyph-name="uni25CC" unicode="◌" horiz-adv-x="1217" d="M980 918q0 -50 -48 -50q-52 0 -52 50t52 50q48 0 48 -50zM832 1016q0 -49 -48 -49q-52 0 -52 49q0 51 52 51q48 0 48 -51zM1079 770q0 -51 -51 -51q-49 0 -49 51q0 49 51 49q49 0 49 -49zM1115 596q0 -50 -48 -50q-52 0 -52 50t52 50q48 0 48 -50zM658 1053 q0 -51 -50 -51t-50 51q0 49 50 49t50 -49zM485 1016q0 -49 -51 -49q-49 0 -49 49q0 51 49 51q51 0 51 -51zM1079 422q0 -49 -51 -49q-49 0 -49 49q0 51 49 51q51 0 51 -51zM337 918q0 -50 -50 -50t-50 47q0 53 50 53t50 -50zM980 272q0 -49 -48 -49q-52 0 -52 49q0 51 52 51 q48 0 48 -51zM832 174q0 -48 -48 -48q-52 0 -52 48q0 52 52 52q48 0 48 -52zM238 770q0 -51 -48 -51q-52 0 -52 51q0 49 50 49t50 -49zM202 596q2 -50 -48 -50q-52 0 -52 50t52 50q50 0 48 -50zM658 141q0 -51 -50 -51t-50 51q0 49 50 49t50 -49zM238 422q0 -49 -50 -49 t-50 49q0 51 50 51t50 -51zM485 178q0 -52 -51 -52q-49 0 -49 48q0 52 49 52q51 0 51 -48zM337 272q0 -49 -50 -49t-50 49q0 51 50 51t50 -51z"/>
    <glyph glyph-name="uni200C" unicode="‌" horiz-adv-x="148"/>
    <glyph glyph-name="exclam" unicode="!" horiz-adv-x="617" d="M429 426h-235l-26 1209h288zM498 66l-191 -191l-192 192l191 191z"/>
    <glyph glyph-name="quotedbl" unicode="&quot;" horiz-adv-x="804" d="M333 1572l-42 -468h-169v634h211v-166zM697 1572l-42 -468h-168v634h210v-166z"/>
    <glyph glyph-name="numbersign" unicode="#" horiz-adv-x="1513" d="M870 375h-271l-92 -496h-203l92 496h-280v192h316l70 378h-294v193h331l94 503h202l-94 -503h272l95 503h202l-95 -503h252v-193h-288l-70 -378h267v-192h-303l-92 -496h-203zM636 567h271l70 378h-271z"/>
    <glyph glyph-name="dollar" unicode="$" horiz-adv-x="1409" d="M991 339q0 103 -65 170t-217.5 121t-237.5 100q-282 151 -282 448q0 201 122 330.5t332 153.5v264h193v-266q211 -31 326 -179t115 -385h-293q0 152 -68.5 240t-185.5 88q-116 0 -181.5 -63t-65.5 -181q0 -105 65 -168.5t219.5 -120.5t243 -105.5t149 -110.5t93.5 -143.5 t33 -190.5q0 -204 -125.5 -331t-349.5 -150v-236h-192v234q-240 27 -369 172.5t-129 384.5h294q0 -152 77 -235.5t217 -83.5q138 0 210 66.5t72 176.5z"/>
    <glyph glyph-name="percent" unicode="%" horiz-adv-x="1821" d="M120 1303q0 159 103 261.5t270 102.5q169 0 271.5 -102.5t102.5 -268.5v-87q0 -158 -102.5 -260t-269.5 -102q-163 0 -269 100t-106 270v86zM326 1209q0 -83 46.5 -134.5t122.5 -51.5q75 0 121 51.5t46 139.5v89q0 83 -46.5 135t-123 52t-121.5 -52.5t-45 -138.5v-90z M967 311q0 162 105.5 262.5t268.5 100.5q165 0 269.5 -100.5t104.5 -270.5v-86q0 -158 -101 -260t-270.5 -102t-273 101t-103.5 267v88zM1173 217q0 -83 48 -135.5t123 -52.5q77 0 121.5 50.5t44.5 140.5v91q0 85 -47.5 136t-121.5 51q-75 0 -121.5 -51t-46.5 -141v-89z M556 11l-152 87l861 1378l151 -88z"/>
    <glyph glyph-name="ampersand" unicode="&amp;" horiz-adv-x="1585" d="M104 355q0 122 66.5 224.5t262.5 242.5q-103 129 -143.5 220t-40.5 176q0 207 126 327.5t339 120.5q193 0 315.5 -113.5t122.5 -280.5q0 -110 -55.5 -202.5t-182.5 -184.5l-120 -87l340 -402q74 145 74 323h256q0 -326 -153 -534l259 -306h-341l-100 117 q-188 -141 -449.5 -141t-418.5 138.5t-157 361.5zM688 90q148 0 278 99l-385 454l-37 -27q-146 -110 -146 -252q0 -122 79 -198t211 -76zM525 1225q0 -102 125 -255l134 92l38 30q75 66 75 171q0 69 -52 118t-132 49q-86 0 -137 -58.5t-51 -146.5z"/>
    <glyph glyph-name="quotesingle" unicode="'" horiz-adv-x="419" d="M323 1587l-31 -473h-193v624h224v-151z"/>
    </font>
</defs>
</svg>
